<?xml version="1.0" standalone="no"?>
<!DOCTYPE svg PUBLIC "-//W3C//DTD SVG 1.1//EN" "http://www.w3.org/Graphics/SVG/1.1/DTD/svg11.dtd" >
<svg xmlns="http://www.w3.org/2000/svg">
<metadata>Generated by IcoMoon</metadata>
<defs>
<font id="aok-icons-2023" horiz-adv-x="1024">
<font-face units-per-em="1024" ascent="960" descent="-64" />
<missing-glyph horiz-adv-x="1024" />
<glyph unicode="&#x20;" horiz-adv-x="512" d="" />
<glyph unicode="&#xe900;" glyph-name="Abrechnung_rgb" d="M331.395 81.229l-94.865 84.313-108.531-72.354v738.813c0.040 35.33 28.67 63.96 63.996 64h512.004c35.33-0.040 63.96-28.67 64-63.996v-448.004h42.667v448c-0.071 58.882-47.785 106.595-106.66 106.667h-512.007c-58.882-0.071-106.595-47.785-106.667-106.66v-818.528l147.469 98.312 97.135-86.354 107.396 85.917 93.344-74.688 26.645 33.333-119.99 95.979zM778.667 320c-100.148 0-181.333-81.186-181.333-181.333s81.186-181.333 181.333-181.333c100.148 0 181.333 81.186 181.333 181.333v0c-0.119 100.1-81.234 181.214-181.322 181.333h-0.012zM778.667 0c-76.583 0-138.667 62.083-138.667 138.667s62.083 138.667 138.667 138.667c76.583 0 138.667-62.083 138.667-138.667v0c-0.091-76.547-62.12-138.575-138.658-138.667h-0.009zM800 213.333h-42.667v-53.333h-53.333v-42.667h53.333v-53.333h42.667v53.333h53.333v42.667h-53.333v53.333zM255.999 725.333h384v-42.667h-384v42.667zM255.999 576h384v-42.667h-384v42.667zM255.999 426.667h384v-42.667h-384v42.667z" />
<glyph unicode="&#xe901;" glyph-name="Abschlussarbeiten_rgb" d="M211.541 53.333c-49.245 0.059-89.149 39.964-89.208 89.203v610.923c0.059 49.245 39.964 89.149 89.203 89.208h0.006v-42.667c-25.693-0.028-46.514-20.849-46.541-46.539v-610.92c0.027-25.693 20.848-46.514 46.539-46.542h0.003zM110.542 53.333c-49.245 0.059-89.149 39.964-89.208 89.203v610.923c0.059 49.245 39.964 89.149 89.203 89.208h0.006v-42.667c-25.693-0.028-46.514-20.848-46.542-46.539v-610.92c0.028-25.693 20.848-46.514 46.539-46.542h0.003zM495.729 53.333h-165.604c-58.882 0.071-106.595 47.785-106.667 106.66v576.007c0.071 58.882 47.785 106.595 106.66 106.667h362.673c58.882-0.071 106.595-47.785 106.667-106.66v-256.007h-42.667v256c-0.040 35.33-28.67 63.96-63.996 64h-362.671c-35.33-0.040-63.96-28.67-64-63.996v-576.004c0.040-35.33 28.67-63.96 63.996-64h165.608zM661.333 53.333h-115.501v115.5l341.333 341.333 115.501-115.5zM588.5 96h55.167l298.667 298.667-55.168 55.167-298.667-298.667z" />
<glyph unicode="&#xe902;" glyph-name="Allergiebettwaesche_rgb" d="M341.333-42.667c-164.949 0-298.667 133.718-298.667 298.667s133.718 298.667 298.667 298.667c164.949 0 298.667-133.718 298.667-298.667v0c-0.191-164.872-133.794-298.476-298.648-298.667h-0.019zM341.333 512c-141.385 0-256-114.615-256-256s114.615-256 256-256c141.385 0 256 114.615 256 256v0c-0.167 141.318-114.682 255.833-255.984 256h-0.016zM512 337.062v42.667h-46.938v46.938h-42.667v-46.938h-59.729v46.938h-42.667v-46.938h-59.729v46.938h-42.667v-46.938h-46.938v-42.667h46.938v-59.729h-46.938v-42.667h46.938v-59.729h-46.938v-42.667h46.938v-46.938h42.667v46.938h59.729v-46.938h42.667v46.938h59.729v-46.938h42.667v46.938h46.938v42.667h-46.938v59.729h46.938v42.667h-46.938v59.729zM260.271 337.062h59.729v-59.729h-59.729zM260.271 174.938v59.729h59.729v-59.729zM422.396 174.938h-59.729v59.729h59.729zM422.396 277.333h-59.729v59.729h59.729zM861.355 619.477c31.65 4.054 55.878 30.777 55.979 63.179v192.010c-0.040 35.33-28.67 63.96-63.996 64h-448.004c-35.33-0.040-63.96-28.67-64-63.996v-149.337c-35.33-0.040-63.96-28.67-64-63.996v-64.004h42.667v64c0.012 11.777 9.556 21.321 21.332 21.333h384.001v-213.333h213.333v-405.333c-0.012-11.777-9.556-21.321-21.332-21.333h-320.001v-42.667h320c35.33 0.040 63.96 28.67 64 63.996v435.504zM384 874.667c0.012 11.777 9.556 21.321 21.332 21.333h448.001c11.777-0.012 21.321-9.556 21.333-21.332v-192.001c-0.012-11.777-9.556-21.321-21.332-21.333h-33.835l-64 64h-371.5zM768 652.5l140.5-140.5h-140.5z" />
<glyph unicode="&#xe903;" glyph-name="AOK_Bonusprogramm_rgb" d="M452.104 501.792c46.417-46.416 110.541-75.125 181.371-75.125 0.192 0 0.384 0 0.576 0.001h0.178c0.086 0 0.188 0 0.29 0 30.754 0 60.256 5.366 87.618 15.213l-1.804-0.567-14.167 40.25c-21.317-7.749-45.923-12.229-71.576-12.229-0.127 0-0.254 0-0.381 0h-0.147c-0.111 0-0.243 0-0.375 0-87.085 0-162.040 51.929-195.591 126.511l-0.545 1.354 138.323-0.135 0.042 42.667-152.073 0.149c-2.762 12.846-4.344 27.603-4.344 42.73 0 15.082 1.572 29.796 4.562 43.988l-0.244-1.385 152.182-0.149 0.043 42.667-138.562 0.135c34.243 76.105 109.406 128.135 196.721 128.135 0.032 0 0.063 0 0.095 0h0.204c0.028 0 0.061 0 0.094 0 26.135 0 51.182-4.658 74.357-13.189l-1.493 0.481 14.458 40.167c-25.988 9.634-56.007 15.208-87.329 15.208-0.016 0-0.032 0-0.049 0h-0.248c-111.106-0.018-205.774-70.378-241.896-168.97l-0.573-1.788-92.99 0.091-0.042-42.667 81.911-0.079c-2.352-12.666-3.755-27.298-3.869-42.236l-0.001-0.101c0.071-15.241 1.456-30.108 4.047-44.557l-0.232 1.561-81.939 0.079-0.043-42.667 93.109-0.091c13.445-37.36 34.037-69.256 60.32-95.443l0.008-0.008zM467.009-42.667c-25.626 0.367-50.363 3.277-74.239 8.487l2.45-0.448c-23.874 4.748-139.517 30.53-157.953 34.643h-151.933v298.576l152.725 0.271c11.187 5.373 36.332 17.462 61.748 28.76 19.76 8.67 42.791 13.716 67.001 13.716 23.588 0 46.056-4.79 66.487-13.449l-1.117 0.421c20.812-8.674 155.766-66.453 155.766-66.453 27.651-12.025 46.636-39.105 46.636-70.618 0-2.482-0.118-4.937-0.348-7.359l0.024 0.309c74.935 33.3 193.869 86.332 195.556 87.071 9.423 4.454 20.47 7.055 32.124 7.055 42.342 0 76.668-34.325 76.668-76.668 0-30.543-17.86-56.914-43.706-69.24l-0.463-0.199c-13.604-6.289-331.532-153.401-359.885-163.887-19.229-6.976-41.423-11.009-64.559-11.009-1.048 0-2.095 0.008-3.139 0.025l0.158-0.002zM127.999 42.667l116.267-0.51c1.354-0.302 134.35-29.999 159.287-34.945 16.796-4.335 36.078-6.823 55.942-6.823 21.433 0 42.188 2.897 61.897 8.321l-1.634-0.384c22.208 8.216 264.992 120.122 356.676 162.554 11.657 5.563 19.569 17.255 19.569 30.796 0 18.787-15.23 34.016-34.016 34.016-5.246 0-10.215-1.188-14.653-3.309l0.205 0.088c-9.979-4.457-236.555-105.472-255.159-113.437-8.063-3.179-17.402-5.021-27.172-5.021-3.576 0-7.094 0.247-10.539 0.725l0.398-0.045c-9.891 0.366-19.175 2.56-27.658 6.251l0.492-0.191-138.995 59.591 16.832 39.194 137.975-59.165c4.177-1.312 9.157-2.393 14.272-3.037l0.436-0.045c18.562 0.295 33.496 15.411 33.496 34.015 0 13.986-8.44 26.001-20.505 31.229l-0.22 0.085c-0.043 0.031-134.662 57.676-155.412 66.319-14.48 6.117-31.316 9.672-48.982 9.672-17.924 0-34.994-3.659-50.503-10.272l0.842 0.319c-24.937-11.1-49.603-22.96-60.581-28.229l-9.458-4.509-119.1 0.021z" />
<glyph unicode="&#xe904;" glyph-name="AOK_empfehlen_rgb" d="M641.606 677.333c-0.173 0.001-0.377 0.001-0.581 0.001-37.412 0-71.277-15.184-95.769-39.726l-33.418-33.39-33.333 33.325c-24.683 24.756-58.822 40.073-96.537 40.073-75.286 0-136.318-61.032-136.318-136.318 0-37.734 15.331-71.886 40.105-96.569l226.167-226.063 226.017 225.997c24.746 24.663 40.057 58.779 40.057 96.472 0 75.22-60.978 136.199-136.199 136.199-0.067 0-0.134 0-0.2 0h0.010zM707.834 475.039l-195.914-195.914-195.747 195.642c-17.133 16.928-27.743 40.424-27.743 66.398 0 51.542 41.783 93.326 93.326 93.326 0.117 0 0.234 0 0.352-0.001h-0.018c0.129 0.001 0.281 0.001 0.433 0.001 25.733 0 49.028-10.443 65.877-27.321l63.438-63.409 63.52 63.492c17.019 17.466 40.771 28.3 67.054 28.3 51.688 0 93.589-41.901 93.589-93.589 0-26.217-10.78-49.916-28.149-66.907l-0.017-0.017zM509.635 938.667h-2.636c-0.288 0.001-0.629 0.001-0.971 0.001-267.693 0-484.702-217.008-484.702-484.702 0-1.263 0.005-2.524 0.014-3.784l-0.001 0.194 2.583-490.458 493.076-2.583c0.283-0.001 0.618-0.001 0.953-0.001 267.703 0 484.719 217.016 484.719 484.719 0 1.256-0.005 2.511-0.014 3.765l0.001-0.192c-2.394 271.325-221.701 490.638-492.795 493.040l-0.229 0.002zM830.544 129.479c-79.998-80.006-190.518-129.492-312.596-129.492-1.179 0-2.357 0.005-3.534 0.014l-448.051 2.374-2.354 448.208c-0.008 1.003-0.013 2.189-0.013 3.376 0 244.133 197.909 442.042 442.042 442.042 0.339 0 0.678 0 1.016-0.001h2.354c247.965-2.189 448.395-202.618 450.585-450.374l0.001-0.21c0.013-1.237 0.020-2.698 0.020-4.161 0-121.816-49.488-232.073-129.456-311.764l-0.012-0.012z" />
<glyph unicode="&#xe905;" glyph-name="AOK_Gesundheitskonto_rgb" d="M540.229 894.055c104.911-14.309 184.89-103.329 184.89-211.030 0-0.497-0.002-0.993-0.005-1.489v0.076l-62.907 62.921-30.165-30.165 114.624-114.645 114.624 114.645-30.165 30.165-63.37-63.386c0.003 0.488 0.005 1.065 0.005 1.642 0 141.285-114.534 255.82-255.82 255.82-71.489 0-136.129-29.324-182.548-76.599l-0.038-0.039 30.458-29.875c38.469 39.461 92.149 63.938 151.545 63.938 10.183 0 20.197-0.719 29.996-2.11l-1.125 0.131zM256.302 684.333c-0.003-0.458-0.005-1-0.005-1.542 0-128.426 94.495-234.782 217.749-253.332l1.412-0.175c11.193-1.702 24.114-2.679 37.261-2.688h0.009c0.004 0 0.008 0 0.013 0 70.329 0 133.982 28.581 179.978 74.762l0.009 0.009-30.083 30.251c-38.556-38.484-91.783-62.282-150.567-62.282-117.714 0-213.139 95.426-213.139 213.139 0 0.449 0.001 0.898 0.004 1.346v-0.069l62.848-62.863 30.167 30.167-114.624 114.646-114.624-114.645 30.165-30.167zM467.009-42.667c-25.626 0.367-50.363 3.277-74.239 8.487l2.45-0.448c-23.874 4.748-139.517 30.53-157.953 34.643h-151.933v298.576l152.725 0.271c11.187 5.373 36.332 17.462 61.748 28.76 19.76 8.67 42.791 13.716 67.001 13.716 23.588 0 46.056-4.79 66.487-13.449l-1.117 0.421c20.812-8.674 155.766-66.453 155.766-66.453 27.651-12.025 46.636-39.105 46.636-70.618 0-2.482-0.118-4.937-0.348-7.359l0.024 0.309c74.935 33.3 193.869 86.332 195.556 87.071 9.423 4.454 20.47 7.055 32.124 7.055 42.342 0 76.668-34.325 76.668-76.668 0-30.543-17.86-56.914-43.706-69.24l-0.463-0.199c-13.604-6.289-331.532-153.401-359.885-163.887-19.229-6.976-41.423-11.009-64.559-11.009-1.048 0-2.095 0.008-3.139 0.025l0.158-0.002zM127.999 42.667l116.267-0.51c1.354-0.302 134.35-29.999 159.287-34.945 16.796-4.335 36.078-6.823 55.942-6.823 21.433 0 42.188 2.897 61.897 8.321l-1.634-0.384c22.208 8.216 264.992 120.122 356.676 162.554 11.657 5.563 19.569 17.255 19.569 30.796 0 18.787-15.23 34.016-34.016 34.016-5.246 0-10.215-1.188-14.653-3.309l0.205 0.088c-9.979-4.457-236.555-105.472-255.159-113.437-8.063-3.179-17.402-5.021-27.172-5.021-3.576 0-7.094 0.247-10.539 0.725l0.398-0.045c-9.891 0.366-19.175 2.56-27.658 6.251l0.492-0.191-138.995 59.591 16.832 39.194 137.975-59.165c4.177-1.312 9.157-2.393 14.272-3.037l0.436-0.045c18.562 0.295 33.496 15.411 33.496 34.015 0 13.986-8.44 26.001-20.505 31.229l-0.22 0.085c-0.043 0.031-134.662 57.676-155.412 66.319-14.48 6.117-31.316 9.672-48.982 9.672-17.924 0-34.994-3.659-50.503-10.272l0.842 0.319c-24.937-11.1-49.603-22.96-60.581-28.229l-9.458-4.509-119.1 0.021z" />
<glyph unicode="&#xe906;" glyph-name="AOK_Praemienprogramm_rgb" d="M467.009-42.667c-25.626 0.367-50.363 3.277-74.239 8.487l2.45-0.448c-23.874 4.748-139.517 30.53-157.953 34.643h-151.933v298.576l152.725 0.271c11.187 5.373 36.332 17.462 61.748 28.76 19.76 8.67 42.791 13.716 67.001 13.716 23.588 0 46.056-4.79 66.487-13.449l-1.117 0.421c20.812-8.674 155.766-66.453 155.766-66.453 27.651-12.025 46.636-39.105 46.636-70.618 0-2.482-0.118-4.937-0.348-7.359l0.024 0.309c74.935 33.3 193.869 86.332 195.556 87.071 9.423 4.454 20.47 7.055 32.124 7.055 42.342 0 76.668-34.325 76.668-76.668 0-30.543-17.86-56.914-43.706-69.24l-0.463-0.199c-13.604-6.289-331.532-153.401-359.885-163.887-19.229-6.976-41.423-11.009-64.559-11.009-1.048 0-2.095 0.008-3.139 0.025l0.158-0.002zM127.999 42.667l116.267-0.51c1.354-0.302 134.35-29.999 159.287-34.945 16.796-4.335 36.078-6.823 55.942-6.823 21.433 0 42.188 2.897 61.897 8.321l-1.634-0.384c22.208 8.216 264.992 120.122 356.676 162.554 11.657 5.563 19.569 17.255 19.569 30.796 0 18.787-15.23 34.016-34.016 34.016-5.246 0-10.215-1.188-14.653-3.309l0.205 0.088c-9.979-4.457-236.555-105.472-255.159-113.437-8.063-3.179-17.402-5.021-27.172-5.021-3.576 0-7.094 0.247-10.539 0.725l0.398-0.045c-9.891 0.366-19.175 2.56-27.658 6.251l0.492-0.191-138.995 59.591 16.832 39.194 137.975-59.165c4.177-1.312 9.157-2.393 14.272-3.037l0.436-0.045c18.562 0.295 33.496 15.411 33.496 34.015 0 13.986-8.44 26.001-20.505 31.229l-0.22 0.085c-0.043 0.031-134.662 57.676-155.412 66.319-14.48 6.117-31.316 9.672-48.982 9.672-17.924 0-34.994-3.659-50.503-10.272l0.842 0.319c-24.937-11.1-49.603-22.96-60.581-28.229l-9.458-4.509-119.1 0.021zM548.785 810.667l118.090 69.958-21.75 36.708-133.125-78.875-133.125 78.875-21.75-36.708 118.090-69.958h-261.882v-362.667h597.333v362.667zM490.667 490.667h-234.667v277.333h234.667zM768 490.667h-234.667v277.333h234.667z" />
<glyph unicode="&#xe907;" glyph-name="Apotheke_rgb" d="M512-42.667c-270.988 0-490.667 219.679-490.667 490.667s219.679 490.667 490.667 490.667c270.988 0 490.667-219.679 490.667-490.667v0c-0.314-270.862-219.806-490.353-490.637-490.667h-0.030zM512 896c-247.424 0-448-200.576-448-448s200.576-448 448-448c247.424 0 448 200.576 448 448v0c-0.29 247.307-200.693 447.71-447.972 448h-0.028zM597.333 85.333h-170.667c-23.553 0.028-42.639 19.114-42.667 42.664v192.003h-192c-23.553 0.028-42.639 19.114-42.667 42.664v170.67c0.028 23.553 19.114 42.639 42.664 42.667h192.003v192c0.028 23.553 19.114 42.639 42.664 42.667h170.669c23.553-0.028 42.639-19.114 42.667-42.664v-192.003h192c23.553-0.028 42.639-19.114 42.667-42.664v-170.67c-0.028-23.553-19.114-42.639-42.664-42.667h-192.003v-192c-0.028-23.553-19.114-42.639-42.664-42.667h-0.003zM192 533.333v-170.667h234.667v-234.667h170.667v234.667h234.667v170.667h-234.667v234.667h-170.667v-234.667z" />
<glyph unicode="&#xe908;" glyph-name="Apps_rgb" d="M533.333 106.667c0-23.564-19.103-42.667-42.667-42.667s-42.667 19.103-42.667 42.667c0 23.564 19.103 42.667 42.667 42.667s42.667-19.103 42.667-42.667zM725.333 64.125c-0.007-35.369-28.641-64.047-63.993-64.125h-341.34c-35.359 0.078-63.993 28.756-64 64.124v703.751c0.007 35.369 28.641 64.047 63.993 64.125h192.007v42.667h-192c-58.91-0.109-106.629-47.871-106.667-106.788v-703.754c0.038-58.92 47.756-106.682 106.656-106.792h341.344c58.91 0.109 106.629 47.871 106.667 106.788v234.546h-42.667zM789.333 938.667h-170.667c-23.551-0.032-42.635-19.115-42.667-42.664v-170.67c0.032-23.551 19.115-42.635 42.664-42.667h170.67c23.551 0.032 42.635 19.115 42.667 42.664v170.67c-0.032 23.551-19.115 42.635-42.664 42.667h-0.003zM618.667 725.333v170.667h170.667l0.043-170.667zM789.333 618.667h-170.667c-23.551-0.032-42.635-19.115-42.667-42.664v-170.67c0.032-23.551 19.115-42.635 42.664-42.667h170.67c23.551 0.032 42.635 19.115 42.667 42.664v170.67c-0.032 23.551-19.115 42.635-42.664 42.667h-0.003zM618.667 405.333v170.667h170.667l0.043-170.667z" />
<glyph unicode="&#xe909;" glyph-name="Arbeitslosenversicherung-_rgb" d="M405.333 693.333v-64h-85.333c-23.553-0.028-42.639-19.114-42.667-42.664v-234.67c0.028-23.553 19.114-42.639 42.664-42.667h1.836l-38.251-38.251 30.167-30.165 68.416 68.416h321.835c23.553 0.028 42.639 19.114 42.667 42.664v234.67c-0.028 23.553-19.114 42.639-42.664 42.667h-1.836l38.251 38.251-30.167 30.165-68.416-68.416h-23.168v64c-0.028 23.553-19.114 42.639-42.664 42.667h-128.003c-23.553-0.028-42.639-19.114-42.667-42.664v-0.003zM364.5 352h-44.5v128h172.5zM704.031 352h-279.198l128 128h151.181zM659.5 586.667h44.5l0.009-64h-108.509zM599.167 586.667l-64-64h-215.167v64zM576 629.333h-128v64h128zM878.063 786.977c-134.549 22.726-253.747 75.956-354.359 152.386l1.984-1.445-13.709 11.415-13.667-11.415c-98.628-74.985-217.826-128.216-347.64-150.276l-4.735-0.665-17.937-2.896v-421c0-137.434 242.188-376.208 379.646-404.841l4.354-0.906 4.354 0.906c137.458 28.633 379.646 267.408 379.646 404.841v421zM853.333 363.081c0-115.664-221.208-332.974-341.333-362.095-120.125 29.121-341.333 246.431-341.333 362.095v384.879c130 24.782 244.97 76.064 343.733 148.208l-2.4-1.671c96.364-70.473 211.334-121.754 336.026-145.688l5.307-0.848z" />
<glyph unicode="&#xe90a;" glyph-name="Arzt_rgb" d="M533.333 554.667h-42.667v-149.333h-149.333v-42.667h149.333v-149.333h42.667v149.333h149.333v42.667h-149.333v149.333zM896 704h-149.333v42.667c0.070 1.411 0.109 3.063 0.109 4.725 0 56.361-45.69 102.051-102.051 102.051-1.662 0-3.315-0.040-4.957-0.118l0.232 0.009h-256c-1.411 0.070-3.063 0.109-4.725 0.109-56.361 0-102.051-45.69-102.051-102.051 0-1.662 0.040-3.315 0.118-4.957l-0.009 0.232v-42.667h-149.333c-58.882-0.071-106.595-47.785-106.667-106.66v-426.674c0.071-58.882 47.785-106.595 106.66-106.667h768.007c58.882 0.071 106.595 47.785 106.667 106.66v426.674c-0.071 58.882-47.785 106.595-106.66 106.667h-0.007zM320 746.667c-0.092 1.247-0.145 2.701-0.145 4.168 0 33.124 26.853 59.977 59.977 59.977 1.467 0 2.921-0.053 4.361-0.156l-0.193 0.011h256c1.247 0.092 2.701 0.145 4.168 0.145 33.124 0 59.977-26.853 59.977-59.977 0-1.467-0.053-2.921-0.156-4.361l0.011 0.193v-42.667h-384zM960 170.667c-0.040-35.33-28.67-63.96-63.996-64h-768.004c-35.33 0.040-63.96 28.67-64 63.996v426.671c0.040 35.33 28.67 63.96 63.996 64h768.004c35.33-0.040 63.96-28.67 64-63.996v-0.004z" />
<glyph unicode="&#xe90b;" glyph-name="Arztsuche_rgb" d="M405.355 618.56h-42.688v-85.333h-85.333v-42.688h85.333v-85.333h42.688v85.333h85.333v42.688h-85.333v85.333zM981.82 142.793l-136.889 136.883c5.342 15.252 8.428 32.835 8.428 51.139 0 69.132-44.019 127.984-105.558 150.054l-1.112 0.348v158.674c-0.071 58.884-47.786 106.6-106.663 106.672h-106.677v85.337c-0.028 23.554-19.114 42.641-42.665 42.669h-213.342c-23.554-0.028-42.64-19.115-42.668-42.666v-85.34h-106.67c-58.884-0.072-106.599-47.788-106.67-106.665v-256.020c0.071-58.884 47.786-106.6 106.663-106.672h414.685c22.415-62.652 81.265-106.672 150.396-106.672 18.305 0 35.889 3.086 52.26 8.767l-1.119-0.338 136.91-136.904c12.886-12.881 30.685-20.847 50.345-20.847 39.331 0 71.214 31.884 71.214 71.214 0 19.671-7.975 37.479-20.869 50.367v0zM277.341 831.899h213.34v-85.337h-213.34zM128.003 319.874c-35.332 0.040-63.962 28.672-64.002 63.999v256.017c0.039 35.332 28.67 63.963 63.998 64.003h512.019c35.331-0.040 63.962-28.671 64.002-63.999v-149.885c-3.541 0.236-7.066 0.54-10.667 0.54-88.329-0.1-159.906-71.679-160.005-159.998v-0.009c0-3.6 0.305-7.125 0.54-10.667zM576.016 330.541c0.001 64.802 52.534 117.334 117.337 117.334s117.337-52.533 117.337-117.337c0-64.803-52.533-117.337-117.337-117.337v0c-64.772 0.080-117.258 52.567-117.337 117.332v0.008zM951.673 72.226c-5.172-5.154-12.308-8.341-20.188-8.341-7.891 0-15.035 3.195-20.21 8.363v0l-126.883 126.878c15.868 11.12 29.256 24.508 40.033 39.861l0.343 0.516 126.903-126.898c5.156-5.172 8.344-12.308 8.344-20.189s-3.188-15.017-8.345-20.189l0.001 0.001z" />
<glyph unicode="&#xe90c;" glyph-name="Assistenzhund_rgb" d="M997.333 863.874l-36.5 21.921-232.329-385.884-210.581 247.365c-7.725 29.912-16.183 54.971-26.19 79.229l1.454-3.98c-16.026 35.891-60.529 66.156-97.507 88.512-6.444 3.931-14.239 6.259-22.579 6.259-22.148 0-40.461-16.418-43.433-37.747l-0.026-0.231-0.333-2.553 8.294-76.597-89.026-40.519-86.72-104.019-118.293-66.944c-13.347-7.648-22.194-21.81-22.194-38.038 0-7.627 1.954-14.798 5.389-21.038l-0.114 0.226c28.726-52.165 116.049-165.795 318.006-126.334 17.522-96.96 70.068-421.243 70.651-424.834l42.029 6.809c-1.607 9.921-25.634 158.148-46.38 282.606l323.014 172.725 228.675-64.685 11.599 40.893-210.173 59.45zM382.336 433.248l-4.469 21.525-21.368-5.169c-188.883-45.48-267.496 55.259-291.962 102.089l125.049 70.764 85.472 102.524 108.192 49.237-10.913 100.552 1.309-0.104c16.816-10.172 68.012-41.122 80.671-69.457 8.044-19.545 16.13-43.965 22.681-69.006l0.953-4.29 1.226-4.754 218.993-257.257-294.631-157.559c-9.681 57.527-17.794 104.423-21.204 120.903zM736 288h-42.667v-96h-96v-42.667h96v-96h42.667v96h96v42.667h-96v96z" />
<glyph unicode="&#xe90d;" glyph-name="Aufzug_rgb" d="M895.957 329.109l-54.080 55.040-30.421-29.931 84.501-85.995 84.587 85.995-30.421 29.931-54.165-55.040zM811.456 541.781l30.421-29.931 54.165 55.040 54.080-55.040 30.421 29.931-84.501 85.995-84.587-85.995zM352 725.333c0 47.128-38.205 85.333-85.333 85.333s-85.333-38.205-85.333-85.333c0-47.128 38.205-85.333 85.333-85.333v0c47.109 0.049 85.285 38.225 85.333 85.329v0.005zM224 725.333c0 23.564 19.103 42.667 42.667 42.667s42.667-19.103 42.667-42.667c0-23.564-19.103-42.667-42.667-42.667v0c-23.551 0.032-42.635 19.115-42.667 42.664v0.003zM682.667 725.333c0 47.128-38.205 85.333-85.333 85.333s-85.333-38.205-85.333-85.333c0-47.128 38.205-85.333 85.333-85.333v0c47.109 0.049 85.285 38.225 85.333 85.329v0.005zM554.667 725.333c0 23.564 19.103 42.667 42.667 42.667s42.667-19.103 42.667-42.667c0-23.564-19.103-42.667-42.667-42.667v0c-23.551 0.032-42.635 19.115-42.667 42.664v0.003zM629.333 106.667h42.667v85.333h104.958l-5.104 25.521s-25.604 128.021-68.916 341.542l-1.917 9.354-8.25 4.813c-27.080 15.174-59.427 24.11-93.861 24.11-0.554 0-1.108-0.002-1.661-0.007l0.085 0.001c-0.731 0.010-1.593 0.016-2.458 0.016-34.174 0-66.259-8.943-94.042-24.617l0.958 0.497-8.229-4.833-1.896-9.354c-43.25-213.5-68.854-341.521-68.854-341.521l-5.104-25.521h104.958v-85.333h42.667v128h-95.562c9.271 46.313 30.854 153.687 61.729 306.063 19.395 8.506 42.001 13.455 65.763 13.455 23.8 0 46.44-4.966 66.941-13.918l-1.079 0.42c30.896-152.353 52.48-259.728 61.771-306.020h-95.562zM298.667 362.667v-256h42.667v213.333h53.333v241.917l-11 6.083c-33.989 17.881-74.269 28.375-117 28.375s-83.011-10.494-118.404-29.045l1.404 0.67-11-6.083v-241.917h53.333v-213.333h42.667v256h-53.333v173.583c25.121 11.315 54.457 17.906 85.333 17.906s60.212-6.592 86.679-18.445l-1.345 0.538v-173.583zM874.667 64c-0.040-35.33-28.67-63.96-63.996-64h-661.337c-35.33 0.040-63.96 28.67-64 63.996v768.004c0.040 35.33 28.67 63.96 63.996 64h661.337c35.33-0.040 63.96-28.67 64-63.996v-106.671h42.667v106.667c-0.071 58.882-47.785 106.595-106.66 106.667h-661.34c-58.882-0.071-106.595-47.785-106.667-106.66v-768.007c0.071-58.882 47.785-106.595 106.66-106.667h661.34c58.882 0.071 106.595 47.785 106.667 106.66v106.674h-42.667z" />
<glyph unicode="&#xe90e;" glyph-name="Ausbildungsberufe_rgb" d="M690.005 328.853l185.792-185.771-81.472-81.472-185.856 185.707-30.229-30.229 216.085-215.936 141.909 141.931-216 216-30.229-30.229zM360.751 434.578l30.225 30.225-93.494 93.458 81.564 81.555 93.461-93.481 30.225 30.225-93.461 93.479 155.936 155.92-215.186 68.883-334.022-334.043 142.004-142.004 109.252 109.24zM76.45 560.802l285.386 285.365 123.552-39.535-327.384-327.384zM995.062 719.567c-3.828 10.406-12.555 18.181-23.308 20.603l-0.216 0.041c-2.121 0.505-4.556 0.795-7.059 0.795-8.834 0-16.825-3.609-22.579-9.433l-90.908-90.887-48.886 14.653-14.946 49.241 90.843 90.864c5.836 5.79 9.45 13.815 9.45 22.682 0 2.466-0.279 4.867-0.808 7.173l0.041-0.215c-2.475 11-10.283 19.747-20.503 23.494l-0.225 0.072c-21.971 8.262-47.366 13.045-73.878 13.045-62.222 0-118.292-26.344-157.663-68.486l-0.115-0.124c-35.456-38.715-57.181-90.515-57.181-147.389 0-21.978 3.244-43.199 9.28-63.209l-0.401 1.548-422.172-422.443 141.921-141.941 420.648 420.648c19.738-6.577 42.463-10.371 66.074-10.371 119.113 0 215.673 96.56 215.673 215.673 0 26.546-4.796 51.971-13.568 75.458l0.488-1.49zM914.761 523.333c-31.318-31.284-74.566-50.632-122.332-50.632-22.95 0-44.856 4.466-64.898 12.577l1.161-0.415-13.046 5.135-409.896-409.898-81.472 81.491 410.837 411.108-4.634 12.775c-6.748 17.914-10.654 38.62-10.654 60.238 0 45.585 17.367 87.113 45.846 118.329l-0.124-0.138c31.66 33.9 76.621 55.029 126.518 55.029 15.43 0 30.387-2.020 44.623-5.811l-1.208 0.274-96.666-96.709 29.056-95.706 95.31-28.597 96.625 96.645c3.469-12.971 5.462-27.864 5.462-43.222 0-47.789-19.293-91.071-50.516-122.483l0.009 0.009z" />
<glyph unicode="&#xe90f;" glyph-name="Auto_rgb" d="M293.333 448c-38.292 0-69.333-31.042-69.333-69.333s31.042-69.333 69.333-69.333c38.292 0 69.333 31.042 69.333 69.333v0c-0.046 38.273-31.060 69.288-69.329 69.333h-0.004zM293.333 352c-14.728 0-26.667 11.939-26.667 26.667s11.939 26.667 26.667 26.667c14.728 0 26.667-11.939 26.667-26.667v0c-0.014-14.722-11.945-26.653-26.665-26.667h-0.001zM661.333 378.667c0-38.292 31.042-69.333 69.333-69.333s69.333 31.042 69.333 69.333c0 38.292-31.042 69.333-69.333 69.333v0c-38.273-0.046-69.288-31.060-69.333-69.329v-0.004zM757.333 378.667c0-14.728-11.939-26.667-26.667-26.667s-26.667 11.939-26.667 26.667c0 14.728 11.939 26.667 26.667 26.667v0c14.722-0.014 26.653-11.945 26.667-26.665v-0.001zM266.667 554.667h490.667v-42.667h-490.667v42.667zM405.333 320h213.333v-42.667h-213.333v42.667zM838.044 640l-55.18 149.333h-542.011l-52.209-149.333h-167.311v-118.396l119.99-37.488v-357.116c0-0.040 0-0.087 0-0.134 0-46.507 37.701-84.208 84.208-84.208s84.208 37.701 84.208 84.208c0 0.047 0 0.094 0 0.141v-0.007 61.583h409.834v-61.583c0-0.040 0-0.087 0-0.134 0-46.507 37.701-84.208 84.208-84.208s84.208 37.701 84.208 84.208c0 0.047 0 0.094 0 0.141v-0.007 358.776l114.677 35.828v118.396zM148.938 526.426l-84.938 26.553v44.354h109.728zM845.323 127c0-0.028 0-0.061 0-0.094 0-22.943-18.599-41.542-41.542-41.542s-41.542 18.599-41.542 41.542c0 0.033 0 0.066 0 0.099v-0.005 104.25h-495.168v-104.25c0-0.028 0-0.061 0-0.094 0-22.943-18.599-41.542-41.542-41.542s-41.542 18.599-41.542 41.542c0 0.033 0 0.066 0 0.099v-0.005 370.396l87.158 249.271h481.989l92.188-249.458zM960 552.979l-80.501-25.167-25.689 69.521h106.19z" />
<glyph unicode="&#xe910;" glyph-name="Baby_Bonus_rgb" d="M416 640c82.475 0 149.333 66.859 149.333 149.333s-66.859 149.333-149.333 149.333c-82.475 0-149.333-66.859-149.333-149.333v0c0.099-82.434 66.899-149.234 149.324-149.333h0.010zM416 896c58.91 0 106.667-47.756 106.667-106.667s-47.756-106.667-106.667-106.667c-58.91 0-106.667 47.756-106.667 106.667v0c0.071 58.882 47.785 106.595 106.66 106.667h0.007zM709.38 499.042l-169.949 98.292h-246.862l-169.949-98.302c-22.431-13.144-37.255-37.13-37.255-64.578 0-13.83 3.763-26.78 10.322-37.884l-0.19 0.347c13.274-22.342 37.282-37.081 64.733-37.081 13.819 0 26.766 3.735 37.886 10.252l-0.354-0.192 79.204 45.885v-94.348l-77.996-50.944c-17.564-11.546-28.999-31.162-28.999-53.449 0-0.033 0-0.065 0-0.098v0.005-184.948c0.072-41.273 33.547-74.703 74.829-74.703s74.757 33.43 74.829 74.696v131.996l42.649 28.011h107.031l42.664-28.011v-131.989c0.102-41.25 33.565-74.651 74.829-74.651s74.728 33.401 74.829 74.641v184.958c0 0.026 0 0.056 0 0.086 0 22.292-11.435 41.913-28.758 53.318l-0.24 0.148-77.6 50.673v94.993l79.204-46.271c10.763-6.318 23.705-10.049 37.519-10.049 27.455 0 51.467 14.739 64.556 36.736l0.19 0.345c6.367 10.756 10.129 23.705 10.129 37.534 0 27.449-14.824 51.435-36.902 64.39l-0.351 0.19zM276.966 187.010v-155.010c-0.094-17.693-14.459-32-32.165-32s-32.071 14.307-32.165 31.991v184.957c0 0.003 0 0.006 0 0.009 0 7.428 3.812 13.966 9.586 17.764l0.080 0.050 70.738 46.197 38.023-58.425zM374.065 234.667l-54.435 83.667v44.333h192.739v-44.333l-54.435-83.667zM618.968 216.948v-184.948c-0.094-17.693-14.459-32-32.165-32s-32.071 14.307-32.165 31.991v155.019l-53.824 35.344 38.027 58.432 70.46-46.005c5.855-3.855 9.667-10.398 9.667-17.832 0-0.001 0-0.001 0-0.002v0zM699.629 418.417c-5.715-9.604-16.041-15.938-27.847-15.938-5.921 0-11.47 1.594-16.242 4.375l0.154-0.083-143.326 83.729v-85.167h-192.739v84.469l-143.242-82.989c-4.64-2.737-10.224-4.353-16.185-4.353-11.804 0-22.127 6.339-27.752 15.798l-0.082 0.149c-2.723 4.601-4.332 10.141-4.332 16.056 0 11.751 6.35 22.019 15.806 27.56l0.151 0.082 160.033 92.563h223.946l160.033-92.552c9.605-5.624 15.954-15.893 15.954-27.644 0-5.914-1.608-11.453-4.411-16.203l0.081 0.149zM929.292 618.667c-0.137 0-0.299-0.001-0.461-0.001-50.541 0-94.964 26.199-120.427 65.757l-0.341 0.566h94.063v42.667h-111.843c-2.139 8.877-3.366 19.069-3.366 29.548 0 11.832 1.564 23.298 4.497 34.204l-0.21-0.919h110.922v42.667h-91.889c26.134 38.143 69.469 62.845 118.573 62.845 0.17 0 0.34 0 0.509-0.001h-0.026c0.058 0 0.127 0 0.195 0 17.312 0 33.918-3.023 49.319-8.569l-1.015 0.319 14.208 40.229c-18.599 6.772-40.068 10.688-62.453 10.688-0.090 0-0.18 0-0.27 0h0.014c-0.173 0.001-0.378 0.001-0.583 0.001-73.348 0-136.746-42.601-166.8-104.411l-0.483-1.101h-75.197v-42.667h61.264c-2.063-9.874-3.244-21.22-3.244-32.842 0-10.602 0.983-20.974 2.862-31.030l-0.161 1.039h-60.721v-42.667h73.484c29.828-64.808 94.208-108.991 168.907-108.991 0.236 0 0.472 0 0.707 0.001h-0.036c0.070 0 0.153 0 0.236 0 22.096 0 43.301 3.812 62.995 10.814l-1.314-0.407-14 40.292c-14.22-5.090-30.625-8.031-47.718-8.031-0.070 0-0.14 0-0.21 0h0.011z" />
<glyph unicode="&#xe911;" glyph-name="Baby_rgb" d="M512 640c82.475 0 149.333 66.859 149.333 149.333s-66.859 149.333-149.333 149.333c-82.475 0-149.333-66.859-149.333-149.333v0c0.099-82.434 66.899-149.234 149.324-149.333h0.010zM512 896c58.91 0 106.667-47.756 106.667-106.667s-47.756-106.667-106.667-106.667c-58.91 0-106.667 47.756-106.667 106.667v0c0.071 58.882 47.785 106.595 106.66 106.667h0.007zM840.149 453.552c-5.255 19.563-17.774 35.576-34.417 45.3l-0.352 0.19-169.949 98.292h-246.862l-169.949-98.302c-22.431-13.144-37.255-37.13-37.255-64.578 0-13.83 3.763-26.78 10.322-37.884l-0.19 0.347c13.274-22.342 37.282-37.081 64.733-37.081 13.819 0 26.766 3.735 37.886 10.252l-0.354-0.192 79.204 45.885v-96.858l-77.287-50.288c-17.558-11.473-28.998-31.034-28.998-53.268 0-0.023 0-0.046 0-0.069v0.004-183.667c0.215-41.072 33.56-74.285 74.663-74.285s74.448 33.212 74.662 74.264v130.99l44.94 29.396h102.109l44.94-29.396v-130.969c0.215-41.072 33.56-74.285 74.663-74.285s74.448 33.212 74.662 74.264v183.688c0 0.019 0 0.042 0 0.065 0 22.234-11.441 41.795-28.756 53.119l-0.242 0.149-77.287 50.288v97.244l79.204-46.271c10.764-6.319 23.706-10.050 37.521-10.050 27.455 0 51.467 14.74 64.554 36.737l0.19 0.345c6.39 10.725 10.168 23.651 10.168 37.459 0 6.816-0.92 13.417-2.644 19.685l0.122-0.52zM553.935 234.667h-83.87l-54.435 83.667v44.333h192.739v-44.333zM373.341 185.687v-154.052c-0.193-17.526-14.445-31.659-31.998-31.659s-31.806 14.133-31.998 31.641v183.685c0.006 7.334 3.786 13.784 9.502 17.513l0.080 0.049 71.249 46.357 37.667-57.879zM714.656 215.302v-183.667c-0.193-17.526-14.445-31.659-31.998-31.659s-31.806 14.133-31.998 31.641v154.070l-54.502 35.656 37.667 57.879 71.249-46.357c5.797-3.779 9.577-10.229 9.583-17.562v-0.001zM795.63 418.417c-5.716-9.603-16.043-15.937-27.848-15.937-5.921 0-11.469 1.593-16.24 4.374l0.154-0.083-143.326 83.729v-85.167h-192.739v84.469l-143.242-82.989c-4.64-2.737-10.224-4.353-16.185-4.353-11.804 0-22.127 6.339-27.752 15.798l-0.082 0.149c-2.723 4.601-4.332 10.141-4.332 16.056 0 11.751 6.35 22.019 15.806 27.56l0.151 0.082 160.033 92.563h223.946l160.033-92.552c9.605-5.624 15.954-15.893 15.954-27.644 0-5.914-1.608-11.453-4.411-16.203l0.081 0.149z" />
<glyph unicode="&#xe912;" glyph-name="Barrierefreiheit_rgb" d="M633.667 64c-0.075 0-0.165 0-0.254 0-30.030 0-55.801 18.239-66.838 44.244l-0.179 0.475-54.396 130.615-54.417-130.615c-11.21-26.479-36.976-44.719-67.003-44.719-0.094 0-0.188 0-0.283 0.001h0.015c-0.076 0-0.165 0-0.255 0-9.984 0-19.485 2.065-28.1 5.792l0.459-0.177c-26.41 11.257-44.587 36.997-44.587 66.983 0 9.927 1.992 19.388 5.598 28.007l-0.178-0.479 94.771 227.563v72.864l-148.083 20.729c-19.526 2.969-35.909 14.362-45.568 30.287l-0.161 0.286c-6.848 11.214-10.902 24.783-10.902 39.298 0 3.882 0.29 7.697 0.85 11.423l-0.052-0.42c3.807 34.723 32.264 61.702 67.315 63.172l0.143 0.005c2.89-0.018 5.714-0.222 8.483-0.6l-0.337 0.038 172.604-24.167h99.354l172.646 24.177c2.421 0.33 5.238 0.53 8.098 0.552h0.027c35.168-1.434 63.619-28.375 67.409-62.745l0.028-0.317c0.541-3.39 0.85-7.298 0.85-11.278 0-16.784-5.495-32.284-14.785-44.799l0.143 0.202c-9.904-13.34-24.683-22.579-41.655-25.083l-0.345-0.042-148.104-20.719v-72.865l94.688-227.448c3.467-8.178 5.482-17.688 5.482-27.67 0-40.048-32.441-72.52-72.477-72.57h-0.005zM512 316.156v0c8.821-0.002 16.39-5.358 19.635-12.996l0.053-0.14 74.083-177.917c4.835-10.872 15.541-18.316 27.985-18.316 4.072 0 7.958 0.797 11.511 2.244l-0.204-0.074c7.383 3.059 13.136 8.802 16.136 15.982l0.072 0.195c1.465 3.353 2.318 7.261 2.318 11.368 0 4.068-0.837 7.941-2.348 11.456l0.072-0.189-96.354 231.458c-1.039 2.421-1.644 5.238-1.646 8.197v95.679c0 0.002 0 0.004 0 0.006 0 10.737 7.935 19.62 18.261 21.106l0.114 0.013 166.499 23.302c5.725 0.925 10.585 4.053 13.77 8.469l0.043 0.062c3.793 5.239 6.068 11.794 6.068 18.88 0 1.886-0.161 3.734-0.47 5.531l0.027-0.192c-0.962 14.655-13.085 26.177-27.899 26.177-0.014 0-0.027 0-0.041 0h0.002l-173.583-24.312c-0.888-0.131-1.914-0.207-2.957-0.208h-102.315c-1.045 0.001-2.070 0.077-3.074 0.222l0.116-0.014-173.687 24.323c-0.768 0.106-1.676 0.177-2.596 0.197h-0.028c-13.62-1.615-24.222-12.617-25.203-26.283l-0.005-0.092c-0.249-1.538-0.392-3.311-0.392-5.117 0-6.27 1.717-12.139 4.706-17.163l-0.085 0.155c3.22-5.542 8.675-9.483 15.099-10.605l0.13-0.019 166.5-23.313c10.44-1.499 18.375-10.382 18.375-21.119 0-0.002 0-0.004 0-0.006v0-95.677c-0.002-2.959-0.607-5.777-1.699-8.337l0.053 0.139-96.376-231.438c-1.381-3.318-2.182-7.173-2.182-11.215 0-12.385 7.528-23.012 18.257-27.555l0.196-0.074c3.321-1.342 7.172-2.121 11.205-2.121 12.451 0 23.167 7.423 27.967 18.084l0.078 0.194 74.125 177.917c3.297 7.777 10.867 13.133 19.687 13.135v0zM512-42.667c-270.988 0-490.667 219.679-490.667 490.667s219.679 490.667 490.667 490.667c270.988 0 490.667-219.679 490.667-490.667v0c-0.314-270.862-219.806-490.353-490.637-490.667h-0.030zM512 896c-247.424 0-448-200.576-448-448s200.576-448 448-448c247.424 0 448 200.576 448 448v0c-0.29 247.307-200.693 447.71-447.972 448h-0.028zM512 650.667c-55.965 0-101.333 45.368-101.333 101.333s45.368 101.333 101.333 101.333c55.965 0 101.333-45.368 101.333-101.333v0c-0.065-55.938-45.395-101.268-101.327-101.333h-0.006zM512 810.667c-32.401 0-58.667-26.266-58.667-58.667s26.266-58.667 58.667-58.667c32.401 0 58.667 26.266 58.667 58.667v0c-0.034 32.387-26.28 58.633-58.663 58.667h-0.003z" />
<glyph unicode="&#xe913;" glyph-name="Batterie_laden_rgb" d="M938.665 563.187h-45.146v76.813c-0.040 35.33-28.67 63.96-63.996 64h-744.191c-35.33-0.040-63.96-28.67-64-63.996v-384.004c0.040-35.33 28.67-63.96 63.996-64h744.191c35.33 0.040 63.96 28.67 64 63.996v76.796h45.146c35.33 0.040 63.96 28.67 64 63.996v102.4c-0.040 35.33-28.67 63.96-63.996 64h-0.004zM959.999 396.792c-0.012-11.777-9.556-21.321-21.332-21.333h-87.814v-119.458c-0.012-11.777-9.556-21.321-21.332-21.333h-744.189c-11.777 0.012-21.321 9.556-21.333 21.332v384.001c0.012 11.777 9.556 21.321 21.332 21.333h744.189c11.777-0.012 21.321-9.556 21.333-21.332v-119.48h87.812c11.777-0.012 21.321-9.556 21.333-21.332v-0.001zM492.329 585.889c2.080 3.243 3.315 7.201 3.315 11.447 0 7.524-3.879 14.142-9.747 17.962l-0.083 0.050c-3.22 2.079-7.153 3.314-11.376 3.314-7.497 0-14.084-3.895-17.848-9.771l-0.051-0.085-115.207-182.134h151.013l-73.721-116.547c-2.080-3.243-3.316-7.201-3.316-11.447 0-7.524 3.88-14.142 9.748-17.962l0.083-0.050c3.222-2.090 7.161-3.333 11.391-3.333 7.497 0 14.082 3.904 17.833 9.791l0.051 0.085 115.186 182.133h-150.993z" />
<glyph unicode="&#xe914;" glyph-name="Behandlung_beantragen_rgb" d="M256 661.333h426.667v-42.667h-426.667v42.667zM256 512h256v-42.667h-256v42.667zM256 362.667h170.667v-42.667h-170.667v42.667zM149.333 64v768c0.040 35.33 28.67 63.96 63.996 64h512.004c35.33-0.040 63.96-28.67 64-63.996v-341.337h42.667v341.333c-0.071 58.882-47.785 106.595-106.66 106.667h-512.007c-58.882-0.071-106.595-47.785-106.667-106.66v-768.007c0.071-58.882 47.785-106.595 106.66-106.667h256.007v42.667h-256c-35.33 0.040-63.96 28.67-64 63.996v0.004zM896 362.667h-64v42.667h-42.667v-42.667h-106.667v42.667h-42.667v-42.667h-64c-23.551-0.032-42.635-19.115-42.667-42.664v-320.003c0.032-23.551 19.115-42.635 42.664-42.667h320.003c23.551 0.032 42.635 19.115 42.667 42.664v320.003c-0.032 23.551-19.115 42.635-42.664 42.667h-0.003zM640 320v-42.667h42.667v42.667h106.667v-42.667h42.667v42.667h64l0.014-106.667h-320.014v106.667zM576 0v170.667h320.020l0.021-170.667z" />
<glyph unicode="&#xe915;" glyph-name="Behandlung_beantragen_Zahn_rgb" d="M256 661.333h426.667v-42.667h-426.667v42.667zM256 512h256v-42.667h-256v42.667zM256 362.667h170.667v-42.667h-170.667v42.667zM554.667-42.667h-341.333c-58.882 0.071-106.595 47.785-106.667 106.66v768.007c0.071 58.882 47.785 106.595 106.66 106.667h512.007c58.882-0.071 106.595-47.785 106.667-106.66v-341.34h-42.667v341.333c-0.040 35.33-28.67 63.96-63.996 64h-512.004c-35.33-0.040-63.96-28.67-64-63.996v-768.004c0.040-35.33 28.67-63.96 63.996-64h341.337zM647.042-42.667c-0.008 0-0.016 0-0.025 0-1.752 0-3.483 0.091-5.188 0.268l0.213-0.018c-25.57 2.856-45.522 23.475-47.323 49.103l-0.009 0.168c-1.229 12.917-11.979 94.771-28.729 218.958-2.934 10.355-6.855 19.388-11.795 27.749l0.295-0.54c-11.166 17.741-18.718 38.836-21.093 61.472l-0.054 0.632c0.091 61.588 50.011 111.487 111.599 111.542h0.005c20.911-0.038 40.438-5.931 57.039-16.126l-0.476 0.272c4.495-2.313 8.182-4.485 11.742-6.833l-0.471 0.292c6.313-5.050 14.415-8.104 23.229-8.104s16.916 3.054 23.304 8.162l-0.074-0.058c4.042 2.521 8.167 5.083 12.833 7.396 15.634 9.425 34.511 15 54.69 15 0.109 0 0.218 0 0.327 0h-0.017c61.593-0.055 111.513-49.953 111.604-111.533v-0.009c-2.43-23.263-9.989-44.352-21.522-62.688l0.355 0.605c-4.195-7.152-7.98-15.443-10.908-24.129l-0.279-0.954-0.438-3.292c-16.937-125.5-27.354-204.896-28.583-217.833-1.819-25.787-21.769-46.397-47.092-49.228l-0.241-0.022c-1.142-0.080-2.474-0.126-3.818-0.126-27.537 0-50.602 19.149-56.605 44.857l-0.077 0.393c-2.458 8.188-10.042 31.875-33.333 100-11.687-33.937-28.313-82.479-33.583-100-6.113-25.666-28.49-44.589-55.415-45.373l-0.085-0.002zM644.938 384c-38.042-0.023-68.879-30.838-68.938-68.869v-0.006c3.050-16.057 8.767-30.343 16.722-43.087l-0.306 0.525c6.845-11.213 12.213-24.226 15.391-38.075l0.171-0.883c10.313-76.459 27.417-204.042 29.188-222.729 0.896-9.313 7.187-10.645 9.083-10.833 6.417-0.896 12.459 5.063 15.417 14.958 6.583 21.833 28.583 85.563 40.396 119.792 3.396 9.833 5.708 16.542 6.125 17.833 4.002 11.558 14.794 19.71 27.49 19.71 0.099 0 0.197 0 0.295-0.001h-0.015c0.085 0.001 0.185 0.001 0.285 0.001 12.655 0 23.452-7.952 27.669-19.131l0.067-0.204 1.354-3.917c24.333-70.771 39.896-117.125 45-134.083 2.959-9.875 8.792-15.875 15.417-14.958 1.896 0.188 8.188 1.521 9.083 10.813 1.749 18.458 18.771 145.458 28.75 219.52l0.438 3.292c3.35 14.717 8.718 27.716 15.89 39.496l-0.328-0.579c7.65 12.213 13.366 26.492 16.293 41.763l0.124 0.78c-0.059 38.037-30.896 68.852-68.935 68.875h-0.002c-12.768-0.036-24.685-3.651-34.809-9.894l0.288 0.165c-4.222-2.155-7.697-4.196-11.049-6.41l0.425 0.264c-12.767-9.146-28.702-14.625-45.917-14.625s-33.15 5.479-46.156 14.788l0.24-0.163c-2.515 1.697-5.48 3.454-8.544 5.046l-0.519 0.245c-10.242 6.515-22.69 10.438-36.045 10.583h-0.039z" />
<glyph unicode="&#xe916;" glyph-name="Behandlung_im_Ausland_rgb" d="M533.333 405.333c147.276 0 266.667 119.391 266.667 266.667s-119.391 266.667-266.667 266.667c-147.276 0-266.667-119.391-266.667-266.667v0c0.171-147.207 119.459-266.496 266.65-266.667h0.017zM331.611 575.26h90.996c6.233-42.709 19.057-81.24 37.509-116.351l-0.945 1.973c-56.499 20.389-101.471 61.079-126.973 113.054l-0.587 1.324zM533.333 896c23.193 0 54.241-49.044 68.332-131.208h-136.664c14.091 82.164 45.139 131.208 68.332 131.208zM607.066 722.125c1.357-15.851 2.121-32.563 2.121-50.125 0-19.057-0.947-37.039-2.532-54.073h-146.643c-1.586 17.034-2.532 35.016-2.532 54.073 0 17.562 0.764 34.275 2.121 50.125zM757.333 672c-0.078-19.242-2.581-37.865-7.219-55.624l0.344 1.551h-101.090c1.595 17.93 2.486 36.065 2.486 54.073 0 16.681-0.72 33.487-2.091 50.125h101.712c3.669-15.039 5.801-32.319 5.858-50.087v-0.038zM533.333 448c-22.809 0-53.161 47.542-67.565 127.26h135.13c-14.404-79.719-44.756-127.26-67.565-127.26zM417.298 617.927h-101.090c-4.367 16.251-6.875 34.91-6.875 54.155 0 17.755 2.135 35.012 6.163 51.527l-0.306-1.484h101.712c-1.37-16.638-2.091-33.444-2.091-50.125 0.001-18.008 0.891-36.143 2.486-54.073zM607.496 460.883c17.507 33.138 30.331 71.668 36.327 112.42l0.237 1.957h90.996c-26.088-53.299-71.061-93.988-125.994-113.882l-1.565-0.495zM736.96 764.792h-92.316c-6.058 44.121-19.116 84.025-38.106 120.337l0.958-2.012c57.88-20.875 103.733-63.105 128.884-116.944l0.579-1.381zM459.171 883.117c-18.032-34.3-31.091-74.205-36.932-116.415l-0.216-1.91h-92.316c25.731 55.221 71.584 97.451 127.898 117.831l1.566 0.495zM467.009-42.667c-25.626 0.367-50.363 3.277-74.239 8.487l2.45-0.448c-23.874 4.748-139.517 30.53-157.953 34.643h-151.933v298.576l152.725 0.271c11.187 5.373 36.332 17.462 61.748 28.76 19.76 8.67 42.791 13.716 67.001 13.716 23.588 0 46.056-4.79 66.487-13.449l-1.117 0.421c20.812-8.674 155.766-66.453 155.766-66.453 27.651-12.025 46.636-39.105 46.636-70.618 0-2.482-0.118-4.937-0.348-7.359l0.024 0.309c74.935 33.3 193.869 86.332 195.556 87.071 9.423 4.454 20.47 7.055 32.124 7.055 42.342 0 76.668-34.325 76.668-76.668 0-30.543-17.86-56.914-43.706-69.24l-0.463-0.199c-13.604-6.289-331.532-153.401-359.885-163.887-19.229-6.976-41.423-11.009-64.559-11.009-1.048 0-2.095 0.008-3.139 0.025l0.158-0.002zM127.999 42.667l116.267-0.51c1.354-0.302 134.35-29.999 159.287-34.945 16.796-4.335 36.078-6.823 55.942-6.823 21.433 0 42.188 2.897 61.897 8.321l-1.634-0.384c22.208 8.216 264.992 120.122 356.676 162.554 11.657 5.563 19.569 17.255 19.569 30.796 0 18.787-15.23 34.016-34.016 34.016-5.246 0-10.215-1.188-14.653-3.309l0.205 0.088c-9.979-4.457-236.555-105.472-255.159-113.437-8.063-3.179-17.402-5.021-27.172-5.021-3.576 0-7.094 0.247-10.539 0.725l0.398-0.045c-9.891 0.366-19.175 2.56-27.658 6.251l0.492-0.191-138.995 59.591 16.832 39.194 137.975-59.165c4.177-1.312 9.157-2.393 14.272-3.037l0.436-0.045c18.562 0.295 33.496 15.411 33.496 34.015 0 13.986-8.44 26.001-20.505 31.229l-0.22 0.085c-0.043 0.031-134.662 57.676-155.412 66.319-14.48 6.117-31.316 9.672-48.982 9.672-17.924 0-34.994-3.659-50.503-10.272l0.842 0.319c-24.937-11.1-49.603-22.96-60.581-28.229l-9.458-4.509-119.1 0.021z" />
<glyph unicode="&#xe917;" glyph-name="Behandlung_in_Europa_rgb" d="M400.256 908.203l-14.891-30.443-33.323-4.885 24.107-23.68-5.696-33.472 29.803 15.808 29.803-15.808-5.696 33.472 24.107 23.68-33.301 4.885-14.912 30.443zM512 938.667l14.891-30.443 33.323-4.885-24.107-23.68 5.696-33.472-29.803 15.808-29.803-15.808 5.696 33.472-24.107 23.68 33.323 4.885 14.891 30.443zM623.744 908.203l14.891-30.443 33.323-4.885-24.107-23.68 5.696-33.472-29.803 15.808-29.803-15.808 5.696 33.472-24.107 23.68 33.323 4.885 14.891 30.443zM705.813 825.749l14.891-30.443 33.323-4.864-24.107-23.701 5.675-33.451-29.781 15.787-29.803-15.787 5.696 33.451-24.107 23.701 33.301 4.864 14.912 30.443zM735.787 712.96l14.891-30.443 33.323-4.885-24.107-23.68 5.696-33.472-29.803 15.808-29.803-15.808 5.696 33.472-24.107 23.68 33.323 4.885 14.891 30.443zM318.187 825.749l-14.891-30.443-33.323-4.864 24.107-23.701-5.675-33.451 29.781 15.787 29.803-15.787-5.696 33.451 24.107 23.701-33.301 4.864-14.912 30.443zM288.213 712.96l-14.891-30.443-33.323-4.885 24.107-23.68-5.696-33.472 29.803 15.808 29.803-15.808-5.696 33.472 24.107 23.68-33.323 4.885-14.891 30.443zM707.605 600.128l14.912-30.443 33.301-4.885-24.107-23.68 5.696-33.472-29.803 15.808-29.781-15.808 5.675 33.472-24.107 23.68 33.323 4.885 14.891 30.443zM623.744 517.611l14.891-30.443 33.323-4.885-24.107-23.701 5.696-33.451-29.803 15.787-29.803-15.787 5.696 33.451-24.107 23.701 33.323 4.885 14.891 30.443zM512 487.147l14.891-30.443 33.323-4.885-24.107-23.701 5.696-33.451-29.803 15.787-29.803-15.787 5.696 33.451-24.107 23.701 33.323 4.885 14.891 30.443zM400.96 517.611l14.912-30.443 33.301-4.885-24.107-23.701 5.696-33.451-29.803 15.787-29.781-15.787 5.675 33.451-24.107 23.701 33.323 4.885 14.891 30.443zM318.187 600.128l14.912-30.443 33.301-4.885-24.107-23.68 5.696-33.472-29.803 15.808-29.781-15.808 5.675 33.472-24.107 23.68 33.323 4.885 14.891 30.443zM467.009-42.667c-25.626 0.367-50.363 3.277-74.239 8.487l2.45-0.448c-23.874 4.748-139.517 30.53-157.953 34.643h-151.933v298.576l152.725 0.271c11.187 5.373 36.332 17.462 61.748 28.76 19.76 8.67 42.791 13.716 67.001 13.716 23.588 0 46.056-4.79 66.487-13.449l-1.117 0.421c20.812-8.674 155.766-66.453 155.766-66.453 27.651-12.025 46.636-39.105 46.636-70.618 0-2.482-0.118-4.937-0.348-7.359l0.024 0.309c74.935 33.3 193.869 86.332 195.556 87.071 9.423 4.454 20.47 7.055 32.124 7.055 42.342 0 76.668-34.325 76.668-76.668 0-30.543-17.86-56.914-43.706-69.24l-0.463-0.199c-13.604-6.289-331.532-153.401-359.885-163.887-19.229-6.976-41.423-11.009-64.559-11.009-1.048 0-2.095 0.008-3.139 0.025l0.158-0.002zM127.999 42.667l116.267-0.51c1.354-0.302 134.35-29.999 159.287-34.945 16.796-4.335 36.078-6.823 55.942-6.823 21.433 0 42.188 2.897 61.897 8.321l-1.634-0.384c22.208 8.216 264.992 120.122 356.676 162.554 11.657 5.563 19.569 17.255 19.569 30.796 0 18.787-15.23 34.016-34.016 34.016-5.246 0-10.215-1.188-14.653-3.309l0.205 0.088c-9.979-4.457-236.555-105.472-255.159-113.437-8.063-3.179-17.402-5.021-27.172-5.021-3.576 0-7.094 0.247-10.539 0.725l0.398-0.045c-9.891 0.366-19.175 2.56-27.658 6.251l0.492-0.191-138.995 59.591 16.832 39.194 137.975-59.165c4.177-1.312 9.157-2.393 14.272-3.037l0.436-0.045c18.562 0.295 33.496 15.411 33.496 34.015 0 13.986-8.44 26.001-20.505 31.229l-0.22 0.085c-0.043 0.031-134.662 57.676-155.412 66.319-14.48 6.117-31.316 9.672-48.982 9.672-17.924 0-34.994-3.659-50.503-10.272l0.842 0.319c-24.937-11.1-49.603-22.96-60.581-28.229l-9.458-4.509-119.1 0.021z" />
<glyph unicode="&#xe918;" glyph-name="Behandlung_planen_rgb" d="M960 896h-64v42.667h-42.667v-42.667h-106.667v42.667h-42.667v-42.667h-64c-23.564 0-42.667-19.103-42.667-42.667v0-320c0-23.564 19.103-42.667 42.667-42.667v0h320c23.564 0 42.667 19.103 42.667 42.667v0 320c0 23.564-19.103 42.667-42.667 42.667v0zM960 533.333h-320v170.667h320zM960 746.667h-320v106.667h64v-42.667h42.667v42.667h106.667v-42.667h42.667v42.667h64zM387.52 405.333c94.257 0 170.667 76.41 170.667 170.667s-76.41 170.667-170.667 170.667c-94.257 0-170.667-76.41-170.667-170.667v0c0.111-94.212 76.455-170.556 170.656-170.667h0.010zM387.52 704c70.692 0 128-57.308 128-128s-57.308-128-128-128c-70.692 0-128 57.308-128 128v0c0.080 70.66 57.34 127.92 127.992 128h0.008zM387.52 341.333c-0.699 0.002-1.526 0.004-2.353 0.004-127.949 0-248.286-32.593-353.161-89.93l3.848 1.927-14.521-8.043 4.229-16.043c46.992-158.37 191.215-271.916 361.958-271.916s314.966 113.547 361.278 269.25l0.681 2.667 4.229 16.043-14.521 8.043c-101.027 55.41-221.363 88.004-349.312 88.004-0.828 0-1.656-0.001-2.483-0.004h0.128zM387.52 0c-0.236-0.001-0.516-0.001-0.795-0.001-145.016 0-268.431 92.485-314.479 221.69l-0.725 2.332c92.058 47.065 200.808 74.646 316 74.646s223.943-27.581 320.009-76.498l-4.009 1.853c-46.773-131.537-170.188-224.022-315.204-224.022-0.28 0-0.561 0-0.841 0.001h0.044z" />
<glyph unicode="&#xe919;" glyph-name="Behandlung_planen_Zahn_rgb" d="M893.318 938.667c-0.077 0-0.169 0-0.26 0-19.9 0-38.512-5.513-54.393-15.096l0.473 0.265c-5.083-2.595-9.243-5.025-13.263-7.653l0.547 0.335c-7.221-5.626-16.421-9.020-26.413-9.020s-19.193 3.394-26.51 9.092l0.097-0.073c-3.17 2.117-6.921 4.319-10.795 6.316l-0.669 0.313c-15.803 9.722-34.941 15.491-55.424 15.519h-0.008c-0.030 0-0.065 0-0.101 0-60.219 0-109.059-48.714-109.265-108.884v-0.020c2.554-22.921 10.076-43.663 21.464-61.721l-0.353 0.6c4.682-7.825 8.758-16.862 11.76-26.375l0.248-0.912 0.396-2.93c13.508-99.892 22.974-171.284 27.12-204.35l0.659-5.291c0.807-6.549 1.333-11.066 1.562-13.435 1.698-23.997 20.285-43.169 43.863-45.765l0.222-0.020c0.977-0.062 2.12-0.098 3.27-0.098 25.954 0 47.694 18.043 53.361 42.27l0.073 0.371c6.202 20.511 27.51 82.223 39.172 115.96 20.616-59.944 34.304-100.768 38.891-115.96 5.709-24.153 26.724-41.98 52.032-42.771l0.085-0.002c1.534 0 3.068 0.082 4.568 0.229 23.808 2.614 42.405 21.783 44.111 45.626l0.009 0.159c1.252 13.275 11.907 94.415 29.258 222.635l0.462 3.422c3.248 10.42 7.319 19.451 12.318 27.866l-0.327-0.595c11.037 17.447 18.56 38.178 21.051 60.43l0.060 0.658c-0.199 60.188-49.037 108.904-109.253 108.904-0.034 0-0.068 0-0.102 0h0.005zM938.824 780.043c-5.821-10.512-10.248-22.721-12.614-35.65l-0.112-0.739-0.441-3.265c-2.74-20.253-6.020-44.57-9.359-69.469l-3.34-24.964q-0.832-6.227-1.652-12.385c-6.759-50.761-13.665-96.589-14.641-106.936 0 0-0.792-14.859-6.493-14.859q-5.701 0-11.378 17.953-30.982 91.869-44.615 131.413l-1.008 2.937c-6.112 11.192-17.797 18.657-31.227 18.657-0.691 0-1.378-0.020-2.059-0.059l0.094 0.004c-0.519 0.027-1.127 0.042-1.738 0.042-13.661 0-25.556-7.559-31.731-18.723l-0.094-0.186c-0.393-1.187-2.66-7.765-6.030-17.469q-10.703-30.967-39.419-116.619-4.797-17.953-10.043-17.953c-6.409 0-8.66 14.859-8.66 14.859-1.12 11.843-9.25 69.632-17.463 128.358l-1.824 13.048c-3.639 26.052-7.194 51.632-10.055 72.787l-0.378 2.78c-2.239 13.634-6.459 25.87-12.4 37.052l0.314-0.647c-8.85 13.113-15.688 28.424-19.626 44.863l-0.193 0.953c-0.075 1.194-0.118 2.589-0.118 3.995 0 37.264 29.993 67.523 67.155 67.954h0.041c14.962-1.849 28.372-7.322 39.689-15.509l-0.249 0.172c3.695-1.896 6.739-3.691 9.673-5.637l-0.37 0.231c12.072-8.090 26.927-12.911 42.907-12.911 16.771 0 32.301 5.31 45.003 14.339l-0.24-0.162q5.094 3.283 10.5 6.047c10.418 7.304 23.062 12.141 36.741 13.407l0.304 0.023c36.845-0.496 66.522-30.479 66.522-67.395 0-1.603-0.056-3.192-0.166-4.767l0.012 0.212c-3.898-17.353-10.544-32.671-19.539-46.302l0.321 0.518zM387.52 405.333c94.257 0 170.667 76.41 170.667 170.667s-76.41 170.667-170.667 170.667c-94.257 0-170.667-76.41-170.667-170.667v0c0.111-94.212 76.455-170.556 170.656-170.667h0.010zM387.52 704c70.692 0 128-57.308 128-128s-57.308-128-128-128c-70.692 0-128 57.308-128 128v0c0.080 70.66 57.34 127.92 127.992 128h0.008zM387.52 341.333c-0.699 0.002-1.526 0.004-2.353 0.004-127.949 0-248.286-32.593-353.161-89.93l3.848 1.927-14.521-8.043 4.229-16.043c46.992-158.37 191.215-271.916 361.958-271.916s314.966 113.547 361.278 269.25l0.681 2.667 4.229 16.043-14.521 8.043c-101.027 55.41-221.363 88.004-349.312 88.004-0.828 0-1.656-0.001-2.483-0.004h0.128zM387.52 0c-0.236-0.001-0.516-0.001-0.795-0.001-145.016 0-268.431 92.485-314.479 221.69l-0.725 2.332c92.058 47.065 200.808 74.646 316 74.646s223.943-27.581 320.009-76.498l-4.009 1.853c-46.773-131.537-170.188-224.022-315.204-224.022-0.28 0-0.561 0-0.841 0.001h0.044z" />
<glyph unicode="&#xe91a;" glyph-name="Behandlung_rgb" d="M320 597.333h128v-128c0.028-23.553 19.114-42.639 42.664-42.667h85.336c23.553 0.028 42.639 19.114 42.667 42.664v128.003h128c23.553 0.028 42.639 19.114 42.667 42.664v85.336c-0.028 23.553-19.114 42.639-42.664 42.667h-128.003v128c-0.028 23.553-19.114 42.639-42.664 42.667h-85.336c-23.553-0.028-42.639-19.114-42.667-42.664v-128.003h-128c-23.553-0.028-42.639-19.114-42.667-42.664v-85.336c0.028-23.553 19.114-42.639 42.664-42.667h0.003zM320 725.333h170.667v170.667h85.333v-170.667h170.667v-85.333h-170.667v-170.667h-85.333v170.667h-170.667zM467.009-42.667c-25.626 0.367-50.363 3.277-74.239 8.487l2.45-0.448c-23.874 4.748-139.517 30.53-157.953 34.643h-151.933v298.576l152.725 0.271c11.187 5.373 36.332 17.462 61.748 28.76 19.76 8.67 42.791 13.716 67.001 13.716 23.588 0 46.056-4.79 66.487-13.449l-1.117 0.421c20.812-8.674 155.766-66.453 155.766-66.453 27.651-12.025 46.636-39.105 46.636-70.618 0-2.482-0.118-4.937-0.348-7.359l0.024 0.309c74.935 33.3 193.869 86.332 195.556 87.071 9.423 4.454 20.47 7.055 32.124 7.055 42.342 0 76.668-34.325 76.668-76.668 0-30.543-17.86-56.914-43.706-69.24l-0.463-0.199c-13.604-6.289-331.532-153.401-359.885-163.887-19.229-6.976-41.423-11.009-64.559-11.009-1.048 0-2.095 0.008-3.139 0.025l0.158-0.002zM127.999 42.667l116.267-0.51c1.354-0.302 134.35-29.999 159.287-34.945 16.796-4.335 36.078-6.823 55.942-6.823 21.433 0 42.188 2.897 61.897 8.321l-1.634-0.384c22.208 8.216 264.992 120.122 356.676 162.554 11.657 5.563 19.569 17.255 19.569 30.796 0 18.787-15.23 34.016-34.016 34.016-5.246 0-10.215-1.188-14.653-3.309l0.205 0.088c-9.979-4.457-236.555-105.472-255.159-113.437-8.063-3.179-17.402-5.021-27.172-5.021-3.576 0-7.094 0.247-10.539 0.725l0.398-0.045c-9.891 0.366-19.175 2.56-27.658 6.251l0.492-0.191-138.995 59.591 16.832 39.194 137.975-59.165c4.177-1.312 9.157-2.393 14.272-3.037l0.436-0.045c18.562 0.295 33.496 15.411 33.496 34.015 0 13.986-8.44 26.001-20.505 31.229l-0.22 0.085c-0.043 0.031-134.662 57.676-155.412 66.319-14.48 6.117-31.316 9.672-48.982 9.672-17.924 0-34.994-3.659-50.503-10.272l0.842 0.319c-24.937-11.1-49.603-22.96-60.581-28.229l-9.458-4.509-119.1 0.021z" />
<glyph unicode="&#xe91b;" glyph-name="Beitraege_rgb" d="M618.667 704.099h256.021v-42.667h-256.021v42.667zM618.667 277.432h256v-42.667h-256v42.667zM618.667 192.099h256v-42.667h-256v42.667zM383.083 289.024l-30.165 30.165-75.584-75.584-75.584 75.584-30.165-30.165 75.584-75.584-75.584-75.584 30.165-30.165 75.584 75.584 75.584-75.584 30.165 30.165-75.584 75.584 75.584 75.584zM256 554.773h42.667v106.667h106.667v42.667h-106.667v106.667h-42.667v-106.667h-106.667v-42.667h106.667v-106.667zM896 938.765h-768c-58.882-0.071-106.595-47.785-106.667-106.66v-768.007c0.071-58.882 47.785-106.595 106.66-106.667h768.007c58.882 0.071 106.595 47.785 106.667 106.66v768.007c-0.071 58.882-47.785 106.595-106.66 106.667h-0.007zM960 832.099v-362.667h-426.667v426.667h362.667c35.33-0.040 63.96-28.67 64-63.996v-0.004zM128 896.099h362.667v-426.667h-426.667v362.667c0.040 35.33 28.67 63.96 63.996 64h0.004zM64 64.099v362.667h426.667v-426.667h-362.667c-35.33 0.040-63.96 28.67-64 63.996v0.004zM896 0.099h-362.667v426.667h426.667v-362.667c-0.040-35.33-28.67-63.96-63.996-64h-0.004z" />
<glyph unicode="&#xe91c;" glyph-name="Benutzerhandbuch_rgb" d="M768 938.667h-512c-58.882-0.071-106.595-47.785-106.667-106.66v-64.007h-42.667v-42.667h42.667v-106.667h-42.667v-42.667h42.667v-106.667h-42.667v-42.667h42.667v-106.667h-42.667v-42.667h42.667v-106.667h-42.667v-42.667h42.667v-64c0.071-58.882 47.785-106.595 106.66-106.667h512.007c58.882 0.071 106.595 47.785 106.667 106.66v768.007c-0.071 58.882-47.785 106.595-106.66 106.667h-0.007zM832 64c-0.040-35.33-28.67-63.96-63.996-64h-512.004c-35.33 0.040-63.96 28.67-64 63.996v64.004h42.667v42.667h-42.667v106.667h42.667v42.667h-42.667v106.667h42.667v42.667h-42.667v106.667h42.667v42.667h-42.667v106.667h42.667v42.667h-42.667v64c0.040 35.33 28.67 63.96 63.996 64h512.004c35.33-0.040 63.96-28.67 64-63.996v-0.004zM528 533.333c55.965 0 101.333 45.368 101.333 101.333s-45.368 101.333-101.333 101.333c-55.965 0-101.333-45.368-101.333-101.333v0c0.065-55.938 45.395-101.268 101.327-101.333h0.006zM528 693.333c32.401 0 58.667-26.266 58.667-58.667s-26.266-58.667-58.667-58.667c-32.401 0-58.667 26.266-58.667 58.667v0c0.034 32.387 26.28 58.633 58.663 58.667h0.003zM527.979 481.521c-68.839-0.806-133.013-20.074-188.009-53.069l1.697 0.944-14.521-8.043 4.229-16.043c22.47-85.692 99.223-147.884 190.502-147.884 2.146 0 4.283 0.034 6.412 0.103l-0.311-0.008c1.824-0.061 3.968-0.095 6.119-0.095 91.286 0 168.046 62.192 190.221 146.516l0.306 1.37 4.229 16.043-14.521 8.043c-53.313 32.054-117.501 51.322-186.129 52.121l-0.225 0.002zM527.979 300.188c-1.952-0.089-4.241-0.14-6.541-0.14-65.579 0-121.539 41.188-143.421 99.106l-0.35 1.055c43.474 23.854 95.17 38.102 150.147 38.644l0.166 0.001c55.156-0.543 106.867-14.791 152.045-39.492l-1.69 0.846c-22.244-58.975-78.21-100.161-143.796-100.161-2.306 0-4.601 0.051-6.882 0.152l0.325-0.011z" />
<glyph unicode="&#xe91d;" glyph-name="Benutzerkonto_rgb" d="M512 512c-117.821 0-213.333 95.513-213.333 213.333s95.513 213.333 213.333 213.333c117.821 0 213.333-95.513 213.333-213.333v0c-0.139-117.765-95.568-213.194-213.32-213.333h-0.014zM512 896c-94.257 0-170.667-76.41-170.667-170.667s76.41-170.667 170.667-170.667c94.257 0 170.667 76.41 170.667 170.667v0c-0.111 94.212-76.455 170.556-170.656 170.667h-0.010zM512-42.667c-206.44 0-393.098 140.169-443.804 333.297l-4.196 15.917 14.408 7.979c124.537 68.307 272.878 108.486 430.604 108.486 1.051 0 2.102-0.002 3.153-0.005h-0.164c0.888 0.003 1.939 0.005 2.991 0.005 157.725 0 306.065-40.179 435.345-110.86l-4.743 2.375 14.408-7.98-4.196-15.917c-50.705-193.128-237.364-333.297-443.804-333.297zM113.693 285.453c57.89-167.577 214.294-285.785 398.307-285.785s340.417 118.209 397.418 282.832l0.89 2.953c-115.89 60.023-252.988 95.22-398.307 95.22s-282.417-35.197-403.235-97.532l4.928 2.311z" />
<glyph unicode="&#xe91e;" glyph-name="Berufserfahrene_rgb" d="M896 704h-149.333v42.667c0.070 1.411 0.109 3.063 0.109 4.725 0 56.361-45.69 102.051-102.051 102.051-1.662 0-3.315-0.040-4.957-0.118l0.232 0.009h-256c-1.411 0.070-3.063 0.109-4.725 0.109-56.361 0-102.051-45.69-102.051-102.051 0-1.662 0.040-3.315 0.118-4.957l-0.009 0.232v-42.667h-149.333c-58.882-0.071-106.595-47.785-106.667-106.66v-426.674c0.071-58.882 47.785-106.595 106.66-106.667h768.007c58.882 0.071 106.595 47.785 106.667 106.66v426.674c-0.071 58.882-47.785 106.595-106.66 106.667h-0.007zM320 746.667c-0.092 1.247-0.145 2.701-0.145 4.168 0 33.124 26.853 59.977 59.977 59.977 1.467 0 2.921-0.053 4.361-0.156l-0.193 0.011h256c1.247 0.092 2.701 0.145 4.168 0.145 33.124 0 59.977-26.853 59.977-59.977 0-1.467-0.053-2.921-0.156-4.361l0.011 0.193v-42.667h-384zM128 661.333h768c35.33-0.040 63.96-28.67 64-63.996v-128.004h-896v128c0.040 35.33 28.67 63.96 63.996 64h0.004zM896 106.667h-768c-35.33 0.040-63.96 28.67-64 63.996v256.004h896v-256c-0.040-35.33-28.67-63.96-63.996-64h-0.004z" />
<glyph unicode="&#xe91f;" glyph-name="Besprechungsraum_rgb" d="M181.333 533.333c47.128 0 85.333 38.205 85.333 85.333s-38.205 85.333-85.333 85.333c-47.128 0-85.333-38.205-85.333-85.333v0c0.049-47.109 38.225-85.285 85.329-85.333h0.005zM181.333 661.333c23.564 0 42.667-19.103 42.667-42.667s-19.103-42.667-42.667-42.667c-23.564 0-42.667 19.103-42.667 42.667v0c0.032 23.551 19.115 42.635 42.664 42.667h0.003zM842.667 533.333c47.128 0 85.333 38.205 85.333 85.333s-38.205 85.333-85.333 85.333c-47.128 0-85.333-38.205-85.333-85.333v0c0.049-47.109 38.225-85.285 85.329-85.333h0.005zM842.667 661.333c23.564 0 42.667-19.103 42.667-42.667s-19.103-42.667-42.667-42.667c-23.564 0-42.667 19.103-42.667 42.667v0c0.032 23.551 19.115 42.635 42.664 42.667h0.003zM1002.667 298.667h-42.667v159.229l-11 6.104c-30.891 16.247-67.499 25.781-106.333 25.781s-75.442-9.535-107.61-26.391l1.277 0.609-11-6.104v-159.229h-64v129.917l-11 6.083c-40.034 21.83-87.685 34.667-138.333 34.667s-98.299-12.837-139.876-35.434l1.543 0.767-11-6.083v-129.917h-64v159.229l-11 6.104c-30.891 16.247-67.499 25.781-106.333 25.781s-75.442-9.535-107.61-26.391l1.277 0.609-11-6.104v-159.229h-42.667v-42.667h341.333v-64h42.667v211c31.338 14.507 68.014 22.969 106.667 22.969s75.328-8.462 108.277-23.633l-1.61 0.665v-211h42.667v64h341.333zM106.667 432.188c22.011 9.718 47.678 15.375 74.667 15.375s52.655-5.657 75.88-15.85l-1.213 0.475v-133.521h-149.333zM768 432.188c22.011 9.718 47.678 15.375 74.667 15.375s52.655-5.657 75.88-15.85l-1.213 0.475v-133.521h-149.333zM512 512c64.801 0 117.333 52.532 117.333 117.333s-52.532 117.333-117.333 117.333c-64.801 0-117.333-52.532-117.333-117.333v0c0.083-64.768 52.565-117.25 117.325-117.333h0.008zM512 704c41.237 0 74.667-33.429 74.667-74.667s-33.429-74.667-74.667-74.667c-41.237 0-74.667 33.429-74.667 74.667v0c0.051 41.217 33.45 74.615 74.662 74.667h0.005z" />
<glyph unicode="&#xe920;" glyph-name="Besteck_rgb" d="M650.667 938.568h42.667v-170.667h-42.667v170.667zM736 938.568h42.667v-170.667h-42.667v170.667zM451.917-42.765h-149.333v435.448l-99.917 55.509 129.187 442.303c6.046 27.597 30.233 47.968 59.197 48.073h0.012c33.706-0.45 60.858-27.879 60.858-61.65 0-0.229-0.001-0.457-0.004-0.686v0.035zM345.25-0.099h64v876.365c0.008 0.2 0.012 0.434 0.012 0.669 0 10.208-8.058 18.534-18.16 18.965l-0.039 0.001c-8.95-0.295-16.285-6.854-17.776-15.419l-0.016-0.111-120.104-411.428 92.083-51.157zM790.187-42.765h-149.333v601.948c-44.079 13.747-75.52 54.191-75.52 101.978 0 0.026 0 0.052 0 0.078v-0.004 277.333h42.667v-277.333c0-0.027 0-0.059 0-0.091 0-32.72 24.593-59.697 56.303-63.454l0.302-0.029 18.917-2.167v-595.593h64v595.417l18.479 2.5c31.389 4.482 55.264 31.151 55.333 63.409v277.34h42.667v-277.333c-0.139-47.128-30.693-87.084-73.058-101.28l-0.756-0.22z" />
<glyph unicode="&#xe921;" glyph-name="Bewerbung_rgb" d="M298.667 512h426.667v-42.667h-426.667v42.667zM298.667 362.667h426.667v-42.667h-426.667v42.667zM298.667 213.333h426.667v-42.667h-426.667v42.667zM469.333 789.333h-170.667v-170.667h170.667zM426.667 661.333h-85.333v85.333h85.333zM768 938.667h-512c-58.882-0.071-106.595-47.785-106.667-106.66v-768.007c0.071-58.882 47.785-106.595 106.66-106.667h512.007c58.882 0.071 106.595 47.785 106.667 106.66v768.007c-0.071 58.882-47.785 106.595-106.66 106.667h-0.007zM832 64c-0.040-35.33-28.67-63.96-63.996-64h-512.004c-35.33 0.040-63.96 28.67-64 63.996v768.004c0.040 35.33 28.67 63.96 63.996 64h512.004c35.33-0.040 63.96-28.67 64-63.996v-0.004z" />
<glyph unicode="&#xe922;" glyph-name="Beziehungen_rgb" d="M955.445 581.222c-29.206 29.444-69.68 47.672-114.412 47.672s-85.207-18.228-114.402-47.661l-0.011-0.011-44.002-44.477-41.7 42.129c13.003 22.924 20.667 50.352 20.667 79.57 0 44.953-18.14 85.669-47.5 115.228l0.009-0.009c-29.206 29.444-69.68 47.672-114.412 47.672s-85.207-18.228-114.402-47.661l-0.011-0.011-44.002-44.477-43.94 44.393c-29.214 29.494-69.722 47.755-114.495 47.755-44.732 0-85.207-18.228-114.402-47.661l-0.011-0.011c-29.117-29.711-47.086-70.441-47.086-115.368s17.969-85.657 47.113-115.396l-0.027 0.027 272.848-275.819 75.499 76.305 265.853-268.745 272.827 275.735c29.196 29.691 47.221 70.445 47.221 115.41s-18.025 85.72-47.244 115.433l0.022-0.023zM98.713 573.036c-21.467 21.979-34.71 52.072-34.71 85.257s13.243 63.278 34.733 85.281l-0.023-0.024c21.481 21.629 51.237 35.018 84.119 35.018 32.924 0 62.713-13.422 84.193-35.092l74.242-75.014 74.296 75.089c21.481 21.629 51.237 35.018 84.119 35.018s62.638-13.388 84.113-35.011l0.007-0.007c21.473-22.076 34.715-52.256 34.715-85.528 0-18.923-4.283-36.846-11.933-52.852l0.318 0.74c-23.642 14.435-52.247 22.982-82.847 22.982-44.691 0-85.125-18.23-114.27-47.659l-0.013-0.013c-29.118-29.746-47.085-70.508-47.085-115.465 0-33.291 9.853-64.282 26.801-90.214l-0.388 0.632-47.832-48.345zM925.152 380.512l-242.534-245.123-242.554 245.207c-21.467 21.979-34.71 52.072-34.71 85.257s13.243 63.278 34.733 85.281l-0.023-0.024c21.481 21.629 51.237 35.018 84.119 35.018 32.924 0 62.713-13.422 84.194-35.093l74.242-75.013 74.296 75.088c21.481 21.629 51.237 35.018 84.119 35.018s62.638-13.388 84.113-35.011l0.007-0.007c21.583-21.942 34.908-52.065 34.908-85.299s-13.325-63.357-34.924-85.316l0.016 0.017z" />
<glyph unicode="&#xe923;" glyph-name="Blitz_rgb" d="M217.741-42.667c-14.197 0.025-25.696 11.539-25.696 25.74 0 3.775 0.812 7.359 2.272 10.589l-0.066-0.162 185.013 414.938h-147.627c-11.784 0.005-21.334 9.559-21.334 21.343 0 2.919 0.586 5.701 1.647 8.235l-0.052-0.141 200.003 487.562c3.281 7.828 10.88 13.228 19.74 13.229h280.285c0 0 0 0 0 0 11.782 0 21.333-9.551 21.333-21.333 0-4.463-1.371-8.606-3.714-12.032l0.047 0.073-166.94-246.479h269.348c11.781-0.002 21.33-9.553 21.33-21.333 0-5.615-2.17-10.724-5.716-14.534l0.012 0.013-611.092-657.479c-4.686-5.067-11.369-8.229-18.79-8.229-0.001 0-0.001 0-0.002 0v0zM263.45 451.104h148.689c11.78-0.003 21.329-9.553 21.329-21.333 0-3.146-0.681-6.133-1.903-8.821l0.054 0.134-156.804-351.667 508.237 546.812h-260.619c0 0 0 0 0 0-11.782 0-21.333 9.551-21.333 21.333 0 4.463 1.371 8.606 3.714 12.032l-0.047-0.073 166.941 246.479h-225.754z" />
<glyph unicode="&#xe924;" glyph-name="Briefumschlag_offen_rgb" d="M970.25 636.575l-458.25 259.425-458.313-259.040c-19.452-11.269-32.332-31.978-32.354-55.697v-421.114c0.028-58.929 47.749-106.703 106.656-106.816h768.011c58.917 0.113 106.639 47.887 106.667 106.813v420.696c-0.030 23.744-12.935 44.468-32.108 55.567l-0.309 0.165zM938.18 605.712l-426.18-242.573-426.524 242.768 426.524 241.071zM896 96.001h-768c-35.364 0.081-64 28.767-64 64.142 0 0.002 0 0.004 0 0.006v0 408.875l448-254.97 448 254.97v-408.875c0-0.002 0-0.004 0-0.006 0-35.375-28.636-64.061-63.992-64.142h-0.008z" />
<glyph unicode="&#xe925;" glyph-name="Briefumschlag_rgb" d="M896 746.667h-768c-58.882-0.071-106.595-47.785-106.667-106.66v-384.007c0.071-58.882 47.785-106.595 106.66-106.667h768.007c58.882 0.071 106.595 47.785 106.667 106.66v384.007c-0.071 58.882-47.785 106.595-106.66 106.667h-0.007zM896 704c10.693-0.076 20.734-2.796 29.523-7.538l-0.335 0.165-413.187-234.753-413.187 234.753c8.454 4.576 18.495 7.296 29.164 7.372h0.024zM960 256c-0.040-35.33-28.67-63.96-63.996-64h-768.004c-35.33 0.040-63.96 28.67-64 63.996v384.004c0.002 8.86 1.814 17.296 5.087 24.96l-0.158-0.415 443.070-251.753 443.072 251.751c3.115-7.248 4.927-15.683 4.928-24.542v-0.001z" />
<glyph unicode="&#xe926;" glyph-name="Brille_rgb" d="M917.333 512v64h-341.333v-71.358c-17.888 12.455-40.075 19.9-64 19.9s-46.112-7.444-64.37-20.143l0.37 0.244v71.358h-341.333v-64h-64v-42.667h64v-64c0.052-47.108 38.226-85.282 85.328-85.333h170.672c47.108 0.052 85.282 38.226 85.333 85.328v37.36c12.156 23.444 36.239 39.186 64 39.186s51.844-15.742 63.811-38.787l0.189-0.399v-37.355c0.052-47.108 38.226-85.282 85.328-85.333h170.672c47.108 0.052 85.282 38.226 85.333 85.328v64.005h64v42.667zM405.333 405.333c-0.028-23.553-19.114-42.639-42.664-42.667h-170.669c-23.553 0.028-42.639 19.114-42.667 42.664v128.003h256zM874.667 405.333c-0.028-23.553-19.114-42.639-42.664-42.667h-170.669c-23.553 0.028-42.639 19.114-42.667 42.664v128.003h256z" />
<glyph unicode="&#xe927;" glyph-name="Brot_rgb" d="M512 704c-275.136 0-490.667-107.979-490.667-245.833v-90.75c-0.004-0.37-0.007-0.806-0.007-1.244 0-60.318 48.468-109.316 108.582-110.172l0.081-0.001h764.032c60.19 0.862 108.652 49.857 108.652 110.171 0 0.438-0.003 0.875-0.008 1.312l0.001-0.066v90.75c0 137.854-215.531 245.833-490.667 245.833zM960 367.417c0.008-0.384 0.012-0.837 0.012-1.29 0-36.744-29.37-66.628-65.914-67.458l-0.077-0.001h-764.031c-36.627 0.83-66.002 30.719-66.002 67.468 0 0.451 0.004 0.9 0.013 1.349l-0.001-0.067v90.75c0 63.086 67.499 120.465 170.667 158.060v-117.268h42.667v130.978c36.334 10.746 79.748 19.553 124.274 24.711l3.726 0.351v-124.040h42.667v127.948c21.003 1.435 42.275 2.427 64 2.427s42.997-0.992 64-2.427v-127.948h42.667v124.040c44.529-5.101 84.352-12.862 123.024-23.41l-5.691 1.323v-133.952h42.667v120.912c109.094-37.458 181.333-96.496 181.333-161.705z" />
<glyph unicode="&#xe928;" glyph-name="Cafeteria_rgb" d="M448.16 597.333c-6.875 11.487-31.177 60.706 3.694 135.25 14.083 27.265 22.339 59.51 22.339 93.683 0 25.004-4.42 48.976-12.522 71.176l0.46-1.443h-46.723c10.449-20.554 16.571-44.821 16.571-70.517 0-27.398-6.959-53.17-19.206-75.646l0.414 0.83c-14.040-26.214-22.288-57.347-22.288-90.405 0-22.531 3.831-44.166 10.877-64.292l-0.416 1.364zM551.489 597.333c-6.875 11.533-31.138 60.742 3.698 135.25 14.083 27.265 22.339 59.51 22.339 93.683 0 25.004-4.42 48.976-12.522 71.176l0.46-1.443h-46.723c10.449-20.554 16.571-44.821 16.571-70.517 0-27.398-6.959-53.17-19.206-75.646l0.414 0.83c-14.034-26.215-22.278-57.347-22.278-90.404 0-22.531 3.83-44.167 10.873-64.293l-0.416 1.364zM149.333 21.333h725.333v-42.667h-725.333v42.667zM810.688 448h-42.688v85.333h-554.667v-341.833c0.067-58.607 47.56-106.099 106.16-106.167h342.34c58.607 0.067 106.099 47.56 106.167 106.16v21.839h42.688c35.316 0.047 63.932 28.663 63.979 63.974v106.713c-0.047 35.316-28.663 63.932-63.974 63.979h-0.004zM725.333 191.5c-0.036-35.056-28.444-63.464-63.496-63.5h-342.337c-35.056 0.036-63.464 28.444-63.5 63.496v299.17h469.333zM832 277.312c-0.015-11.764-9.548-21.297-21.311-21.312h-42.689v149.333h42.688c11.764-0.015 21.297-9.548 21.312-21.311v-0.001z" />
<glyph unicode="&#xe929;" d="M467.009-42.709c-25.617 0.363-50.347 3.274-74.215 8.491l2.444-0.448c-23.875 4.75-139.52 30.542-157.958 34.645h-151.947v298.688l152.729 0.271c11.177 5.376 36.323 17.479 61.76 28.771 19.751 8.669 42.773 13.715 66.973 13.715 23.597 0 46.073-4.797 66.507-13.469l-1.116 0.421c20.802-8.646 155.771-66.458 155.771-66.458 27.669-12.016 46.669-39.104 46.669-70.629 0-2.485-0.118-4.943-0.349-7.368l0.024 0.309c74.948 33.333 193.844 86.354 195.52 87.104 9.423 4.452 20.47 7.051 32.123 7.051 42.361 0 76.701-34.34 76.701-76.701 0-30.561-17.873-56.947-43.736-69.276l-0.463-0.199c-13.604-6.292-331.531-153.438-359.896-163.917-19.232-6.985-41.431-11.023-64.573-11.023-1.044 0-2.086 0.008-3.126 0.025l0.157-0.002zM128 42.645l116.281-0.521c1.344-0.292 134.365-30 159.281-34.958 16.788-4.324 36.061-6.807 55.914-6.807 21.439 0 42.202 2.895 61.92 8.315l-1.636-0.383c22.229 8.229 265.010 120.167 356.688 162.604 11.664 5.565 19.581 17.264 19.581 30.812 0 18.796-15.238 34.034-34.034 34.034-5.248 0-10.219-1.188-14.659-3.31l0.205 0.088c-9.979-4.437-236.542-105.521-255.135-113.479-8.035-3.175-17.342-5.016-27.080-5.016-3.406 0-6.759 0.225-10.045 0.661l0.385-0.042c-10.092 0.308-19.585 2.532-28.24 6.316l0.49-0.191-138.989 59.605 16.812 39.208 138.010-59.188c4.211-1.328 9.217-2.41 14.361-3.041l0.42-0.042c18.521 0.37 33.394 15.472 33.394 34.047 0 13.985-8.43 26.001-20.486 31.243l-0.22 0.085c-0.063 0.021-134.688 57.667-155.427 66.313-14.477 6.116-31.309 9.67-48.971 9.67-17.93 0-35.004-3.663-50.516-10.281l0.841 0.319c-24.948-11.084-49.625-22.96-60.594-28.229l-9.458-4.5-119.093 0.020z" />
<glyph unicode="&#xe92a;" d="M679.728 752.417l-0.113 0.072 17.323 25.158-73.522 137.583-7.115 2.917c-1.167 0.458-119.271 46.229-227.281-0.146l-6.354-2.729-3.552-5.917c-10.709-17.917-21.042-39.812-31.042-61-8.917-18.875-17.333-36.708-25.104-49.854l-6.625-11.208 14.171-22.488-0.41-0.262 102.292-160.544-105.114-169.414 106.167-69.625 75.533 118.841 75.707-118.82 106.135 69.604-105.284 169.671zM534.155 687.059l55.481 89.405c18.836-3.736 34.887-7.982 47.354-11.771l-76.418-120.206zM472.934 785.721c5.671 0.235 12.326 0.368 19.012 0.368 18.23 0 36.227-0.994 53.942-2.931l-2.189 0.194-34.649-55.835zM386.655 830.146c8.396 17.792 17.052 36.125 25.573 51.25 26.853 9.054 57.778 14.279 89.923 14.279 32.615 0 63.973-5.379 93.237-15.298l-2.045 0.602 37.562-70.291c-41.906 11.394-90.038 17.994-139.695 18.104h-0.065c-0.326 0.001-0.711 0.001-1.097 0.001-38.963 0-76.873-4.51-113.236-13.037l3.344 0.661c2.135 4.479 4.302 9.083 6.5 13.729zM420.655 424.375l-35.187 23.083 72.365 116.617 25.845-40.564zM597.436 424.354l-221.148 347.086c13.228 3.707 29.849 7.182 46.79 9.668l2.332 0.281 207.224-333.931z" />
<glyph unicode="&#xe92b;" glyph-name="Chat_online_rgb" d="M905.319 843.168c-32.75 32.773-78.006 53.045-127.997 53.045-68.44 0-128.006-37.995-158.754-94.043l-0.473-0.94c-1.043 0.293-2.023 0.76-3.071 1.040-19.261 5.319-41.377 8.375-64.207 8.375-68.987 0-131.456-27.908-176.733-73.050l0.006 0.006c-70.256-70.357-77.34-144.547-75.079-406.724l0.177-20.96 20.957-0.188c26.499-0.25 51.081-0.396 73.933-0.396 203.831 0 270.223 11.98 332.917 74.754 39.29 39.304 65.497 91.69 71.528 150.062l0.089 1.065c25.19-1.374 54.855-1.872 89.249-1.872q23.889 0 50.768 0.271l20.957 0.188 0.177 20.96c1.583 185.090-3.552 237.593-54.445 288.408zM696.811 414.254c-53.497-53.605-108.045-63.814-355.292-62.022-1.583 246.405 8.74 301.116 62.756 355.2 37.482 37.523 89.286 60.734 146.51 60.734 114.368 0 207.081-92.713 207.081-207.081 0-57.384-23.341-109.317-61.047-146.822l-0.009-0.009zM917.246 576.115c-47.561-0.258-86.615 0.116-118.073 1.906-5.782 91.808-61.087 169.453-139.295 206.988l-1.478 0.639c24.426 40.985 68.518 68.013 118.922 68.013 38.246 0 72.857-15.561 97.847-40.697l0.006-0.007c35.747-35.668 42.945-72.649 42.070-236.844zM629.333 64c-0.040-35.33-28.67-63.96-63.996-64h-373.337c-35.33 0.040-63.96 28.67-64 63.996v768.004c0.040 35.33 28.67 63.96 63.996 64h373.337v42.667h-373.333c-58.882-0.071-106.595-47.785-106.667-106.66v-768.007c0.071-58.882 47.785-106.595 106.66-106.667h373.34c58.882 0.071 106.595 47.785 106.667 106.66v192.007h-42.667zM421.333 117.333c0-23.564-19.103-42.667-42.667-42.667s-42.667 19.103-42.667 42.667c0 23.564 19.103 42.667 42.667 42.667s42.667-19.103 42.667-42.667z" />
<glyph unicode="&#xe92c;" glyph-name="Chatbot_rgb" d="M469.333 405.333h170.667v-42.667h-170.667v42.667zM512 480c0-17.673-14.327-32-32-32s-32 14.327-32 32c0 17.673 14.327 32 32 32s32-14.327 32-32zM661.333 480c0-17.673-14.327-32-32-32s-32 14.327-32 32c0 17.673 14.327 32 32 32s32-14.327 32-32zM725.333 608h-149.333v85.333h-42.667v-85.333h-149.333c-23.553-0.028-42.639-19.114-42.667-42.664v-256.003c0.028-23.553 19.114-42.639 42.664-42.667h341.336c23.553 0.028 42.639 19.114 42.667 42.664v256.003c-0.028 23.553-19.114 42.639-42.664 42.667h-0.003zM384 309.333v256h341.333l0.031-256zM629.333 64c-0.040-35.33-28.67-63.96-63.996-64h-373.337c-35.33 0.040-63.96 28.67-64 63.996v768.004c0.040 35.33 28.67 63.96 63.996 64h373.337v42.667h-373.333c-58.882-0.071-106.595-47.785-106.667-106.66v-768.007c0.071-58.882 47.785-106.595 106.66-106.667h373.34c58.882 0.071 106.595 47.785 106.667 106.66v128.007h-42.667zM907.435 896.625c-25.789 25.968-61.512 42.042-100.99 42.042-0.148 0-0.295 0-0.443-0.001h-0.009c-0.131 0-0.285 0.001-0.44 0.001-39.463 0-75.175-16.057-100.96-41.994l-0.007-0.007c-41.147-41.187-44.231-88.625-43.064-224.646l0.177-20.959 20.958-0.187c13.981-0.125 26.97-0.208 39.095-0.208 112.742 0 149.587 6.792 185.65 42.875v0.021c25.912 26.023 41.931 61.914 41.931 101.547 0 39.617-16.006 75.495-41.904 101.521l0.006-0.006zM877.216 723.687c-25.481-25.5-52.98-31.437-173.16-30.292-0.501 119.937 4.958 147.333 30.718 173.104 18.111 18.222 43.19 29.5 70.904 29.5 0.111 0 0.222 0 0.334-0.001h0.004c0.096 0 0.21 0.001 0.324 0.001 27.708 0 52.782-11.279 70.881-29.495l0.005-0.005c18.208-18.303 29.463-43.538 29.463-71.401 0-27.869-11.26-53.107-29.478-71.416l0.004 0.004zM421.333 117.333c0-23.564-19.103-42.667-42.667-42.667s-42.667 19.103-42.667 42.667c0 23.564 19.103 42.667 42.667 42.667s42.667-19.103 42.667-42.667z" />
<glyph unicode="&#xe92d;" glyph-name="Check_rgb" d="M512 938.667c-270.988 0-490.667-219.679-490.667-490.667s219.679-490.667 490.667-490.667c270.988 0 490.667 219.679 490.667 490.667v0c-0.314 270.862-219.806 490.353-490.637 490.667h-0.030zM512 0c-247.424 0-448 200.576-448 448s200.576 448 448 448c247.424 0 448-200.576 448-448v0c-0.29-247.307-200.693-447.71-447.972-448h-0.028zM404.792 294.792c-0.921-0.908-2.187-1.469-3.583-1.469s-2.662 0.561-3.584 1.469l0.001-0.001-124.802 124.063-30.083-30.251 124.802-124.063c8.646-8.551 20.539-13.833 33.667-13.833s25.021 5.282 33.671 13.838l-0.004-0.004 346.385 344.334-30.083 30.251z" />
<glyph unicode="&#xe92e;" glyph-name="Cloud_rgb" d="M887.417 666.604c0.021 1 0.043 2 0.043 3.021-0.443 94.455-77.116 170.855-171.633 170.855-0.136 0-0.273 0-0.409 0h0.021c-21.734-0.019-42.489-4.185-61.525-11.75l1.129 0.396c-45.309 47.799-109.256 77.542-180.15 77.542-116.911 0-214.93-80.884-241.151-189.745l-0.344-1.692c-58.021-0.84-110.344-24.556-148.489-62.509l0.009 0.009c-39.247-38.367-63.584-91.844-63.584-151.005 0-0.028 0-0.055 0-0.083v0.004c-0.005-0.536-0.007-1.17-0.007-1.805 0-61.65 24.852-117.496 65.085-158.065l-0.015 0.015c32.429-32.545 77.292-52.683 126.857-52.683 0.849 0 1.696 0.006 2.542 0.018l-0.128-0.001h76.146v42.667h-76.104c-0.575-0.009-1.253-0.014-1.933-0.014-38.087 0-72.561 15.47-97.481 40.468l-0.004 0.004c-32.332 32.759-52.302 77.789-52.302 127.483 0 0.673 0.004 1.344 0.011 2.015l-0.001-0.102c0.015 47.306 19.503 90.056 50.883 120.675l0.034 0.033c31.066 30.989 73.922 50.169 121.259 50.229h0.012l32.25-0.667 5.104 26.813c19.364 94.887 102.145 165.271 201.366 165.271 60.802 0 115.431-26.43 153.024-68.429l0.173-0.196 15.521-17.562 21.5 9.354c14.807 6.681 32.096 10.595 50.294 10.645h0.018c0.132 0 0.287 0.001 0.443 0.001 70.942 0 128.5-57.304 128.911-128.149v-0.039c0-2.229-0.146-4.395-0.354-6.479l-2.354-23.625 21.937-9.208c56.835-24.082 95.981-79.398 95.981-143.857 0-86.044-69.753-155.797-155.797-155.797-0.585 0-1.169 0.003-1.752 0.010l0.089-0.001h-70.354v-42.667h70.354c0.499-0.005 1.088-0.007 1.678-0.007 109.599 0 198.447 88.848 198.447 198.447 0 79.415-46.648 147.934-114.038 179.652l-1.212 0.513zM522.667 420.757l-112 112.576-112-112.576 30.571-30.144 59.947 60.288v-440.235h42.965v440.235l59.947-60.288 30.571 30.144zM634.816 93.099v440.235h-42.965v-440.235l-59.947 60.288-30.571-30.144 112-112.576 112 112.576-30.571 30.144-59.947-60.288z" />
<glyph unicode="&#xe92f;" glyph-name="Co-Browsing_rgb" d="M874.667 768h-85.333v-42.667h85.333c11.777-0.012 21.321-9.556 21.333-21.332v-256.001c-0.012-11.777-9.556-21.321-21.332-21.333h-448.001c-11.777 0.012-21.321 9.556-21.333 21.332v128.001h-42.667v-128c0.040-35.33 28.67-63.96 63.996-64h202.671v-64h-106.667v-42.667h256v42.667h-106.667v64h202.667c35.33 0.040 63.96 28.67 64 63.996v256.004c-0.040 35.33-28.67 63.96-63.996 64h-0.004zM540.736 894.741c61.078-8.387 108.835-56.221 117.026-116.625l0.078-0.704-29.122 29.026-30.283-30.177 82.116-81.844 82.116 81.844-30.282 30.177-31.206-31.105c-8.497 91.907-85.225 163.309-178.629 163.309-50.020 0-95.257-20.477-127.786-53.506l-0.022-0.023 30.574-29.887c24.632 25.175 58.953 40.783 96.92 40.783 6.525 0 12.943-0.461 19.222-1.352l-0.721 0.084zM312.949 713.591l31.248 31.134c7.52-83.131 70.855-149.44 151.894-161.46l0.978-0.119c7.542-1.154 16.244-1.813 25.099-1.813 0.061 0 0.123 0 0.184 0h-0.010c49.468 0.036 94.285 19.922 126.921 52.122l-0.020-0.020-30.198 30.262c-24.675-24.547-58.694-39.721-96.258-39.721-69.095 0-126.199 51.34-135.246 117.954l-0.078 0.706 29.152-29.046 30.282 30.177-82.116 81.823-82.116-81.823zM421.333 117.333c0-23.564-19.103-42.667-42.667-42.667s-42.667 19.103-42.667 42.667c0 23.564 19.103 42.667 42.667 42.667s42.667-19.103 42.667-42.667zM629.333 64c-0.040-35.33-28.67-63.96-63.996-64h-373.337c-35.33 0.040-63.96 28.67-64 63.996v768.004c0.040 35.33 28.67 63.96 63.996 64h106.671v42.667h-106.667c-58.882-0.071-106.595-47.785-106.667-106.66v-768.007c0.071-58.882 47.785-106.595 106.66-106.667h373.34c58.882 0.071 106.595 47.785 106.667 106.66v138.674h-42.667z" />
<glyph unicode="&#xe930;" glyph-name="Code_rgb" d="M896 938.667h-768c-58.882-0.071-106.595-47.785-106.667-106.66v-768.007c0.071-58.882 47.785-106.595 106.66-106.667h768.007c58.882 0.071 106.595 47.785 106.667 106.66v768.007c-0.071 58.882-47.785 106.595-106.66 106.667h-0.007zM128 896h768c35.33-0.040 63.96-28.67 64-63.996v-128.004h-896v128c0.040 35.33 28.67 63.96 63.996 64h0.004zM896 0h-768c-35.33 0.040-63.96 28.67-64 63.996v597.337h896v-597.333c-0.040-35.33-28.67-63.96-63.996-64h-0.004zM149.333 832h64v-64h-64v64zM277.333 832h64v-64h-64v64zM336.917 537.749l-192-192c-3.862-3.86-6.25-9.192-6.25-15.083s2.389-11.224 6.25-15.083l192-192 30.165 30.167-176.916 176.917 176.917 176.917zM687.083 537.749l-30.165-30.165 176.917-176.917-176.917-176.917 30.165-30.165 192 192c3.862 3.86 6.25 9.192 6.25 15.083s-2.389 11.224-6.25 15.083v0zM437.699 68.198l106.769 533.313 41.833-8.375-106.769-533.313-41.833 8.375z" />
<glyph unicode="&#xe931;" glyph-name="Computer_rgb" d="M938.667 853.333h-853.333c-35.33-0.040-63.96-28.67-64-63.996v-512.004c0.040-35.33 28.67-63.96 63.996-64h405.337v-85.333h-192v-42.667h426.667v42.667h-192v85.333h405.333c35.33 0.040 63.96 28.67 64 63.996v512.004c-0.040 35.33-28.67 63.96-63.996 64h-0.004zM960 277.333c-0.008-11.779-9.555-21.325-21.333-21.333h-853.334c-11.779 0.008-21.325 9.555-21.333 21.333v512.001c0.008 11.779 9.555 21.325 21.333 21.333h853.334c11.779-0.008 21.325-9.555 21.333-21.333v-0.001z" />
<glyph unicode="&#xe932;" glyph-name="Cookies_rgb" d="M512-42.568c-0.516-0.002-1.126-0.003-1.736-0.003-270.989 0-490.67 219.68-490.67 490.67s219.68 490.67 490.67 490.67c40.785 0 80.409-4.976 118.295-14.355l-3.372 0.706 30.979-7.333-18.562-25.855c-11.328-15.497-18.125-34.929-18.125-55.95 0-39.334 23.801-73.109 57.786-87.709l0.621-0.237 22.177-9.417-12.042-20.875c-8.193-13.587-13.081-29.972-13.187-47.491v-0.030c0.062-52.914 42.941-95.793 95.849-95.854h0.006c17.552 0.101 33.942 4.99 47.955 13.425l-0.424-0.237 20.875 12.042 9.427-22.187c14.456-34.63 48.044-58.525 87.213-58.525 12.342 0 24.131 2.373 34.933 6.687l-0.636-0.224 25.344 9.458 3.292-26.854c2.551-18.745 4.007-40.409 4.007-62.414 0-269.578-218.536-488.114-488.114-488.114-0.9 0-1.799 0.002-2.698 0.007l0.138-0.001zM512 896.099c-247.424 0-448-200.576-448-448s200.576-448 448-448c247.424 0 448 200.576 448 448v0c0 9.542-0.405 19.52-1.219 30.167-6.829-1.204-14.693-1.892-22.717-1.892-48.894 0-91.819 25.555-116.148 64.036l-0.333 0.564c-14.475-5.867-31.264-9.271-48.849-9.271-0.017 0-0.033 0-0.050 0h0.003c-76.467 0.090-138.431 62.054-138.521 138.512v0.009c0 17.593 3.404 34.392 9.59 49.772l-0.319-0.898c-39.078 24.891-64.625 67.992-64.625 117.059 0 0.045 0 0.090 0 0.135v-0.007c0 0.022 0 0.047 0 0.073 0 19.134 3.938 37.349 11.049 53.877l-0.339-0.887c-22.671 4.23-48.787 6.683-75.464 6.75h-0.058zM320 469.432c-70.692 0-128 57.308-128 128s57.308 128 128 128c70.692 0 128-57.308 128-128v0c-0.080-70.66-57.339-127.92-127.992-128h-0.008zM320 682.765c-47.128 0-85.333-38.205-85.333-85.333s38.205-85.333 85.333-85.333c47.128 0 85.333 38.205 85.333 85.333v0c-0.052 47.108-38.226 85.282-85.328 85.333h-0.005zM682.667 213.432c-58.91 0-106.667 47.756-106.667 106.667s47.756 106.667 106.667 106.667c58.91 0 106.667-47.756 106.667-106.667v0c-0.071-58.882-47.785-106.595-106.66-106.667h-0.007zM682.667 384.099c-35.346 0-64-28.654-64-64s28.654-64 64-64c35.346 0 64 28.654 64 64v0c-0.040 35.33-28.67 63.96-63.996 64h-0.004zM362.667 170.765c-47.128 0-85.333 38.205-85.333 85.333s38.205 85.333 85.333 85.333c47.128 0 85.333-38.205 85.333-85.333v0c-0.052-47.107-38.226-85.282-85.328-85.333h-0.005zM362.667 298.765c-23.564 0-42.667-19.103-42.667-42.667s19.103-42.667 42.667-42.667c23.564 0 42.667 19.103 42.667 42.667v0c-0.028 23.553-19.114 42.639-42.664 42.667h-0.003z" />
<glyph unicode="&#xe933;" glyph-name="Datei_rgb" d="M768 938.765h-332.365l-286.302-286.313v-588.354c0.071-58.882 47.785-106.595 106.66-106.667h512.007c58.882 0.071 106.595 47.785 106.667 106.66v768.007c-0.071 58.882-47.785 106.595-106.66 106.667h-0.007zM423.135 865.931v-200.978h-200.969zM832 64.099c-0.040-35.33-28.67-63.96-63.996-64h-512.004c-35.33 0.040-63.96 28.67-64 63.996v558.191h273.802v273.813h302.198c35.33-0.040 63.96-28.67 64-63.996v-0.004z" />
<glyph unicode="&#xe934;" glyph-name="Dateien_rgb" d="M768 938.765v-42.667c35.33-0.040 63.96-28.67 64-63.996v-768.004c-0.040-35.33-28.67-63.96-63.996-64h-0.004v-42.667c58.882 0.071 106.595 47.785 106.667 106.66v768.007c-0.071 58.882-47.785 106.595-106.66 106.667h-0.007zM896 938.765v-42.667c35.33-0.040 63.96-28.67 64-63.996v-768.004c-0.040-35.33-28.67-63.96-63.996-64h-0.004v-42.667c58.882 0.071 106.595 47.785 106.667 106.66v768.007c-0.071 58.882-47.785 106.595-106.66 106.667h-0.007zM640 938.765h-332.365l-286.302-286.313v-588.354c0.071-58.882 47.785-106.595 106.66-106.667h512.007c58.882 0.071 106.595 47.785 106.667 106.66v768.007c-0.071 58.882-47.785 106.595-106.66 106.667h-0.007zM295.135 865.931v-200.978h-200.969zM704 64.099c-0.040-35.33-28.67-63.96-63.996-64h-512.004c-35.33 0.040-63.96 28.67-64 63.996v558.191h273.802v273.813h302.198c35.33-0.040 63.96-28.67 64-63.996v-0.004z" />
<glyph unicode="&#xe935;" glyph-name="Datenaustausch_rgb" d="M627.5 741.432h161.833c11.777-0.012 21.321-9.556 21.333-21.332v-320.001h42.667v320c-0.040 35.33-28.67 63.96-63.996 64h-161.837l48.917 48.917-30.167 30.166-100.416-100.416 100.416-100.416 30.165 30.165zM459.584 193.015l48.917-48.917h-209.835c-15.552 0-21.333 5.792-21.333 21.333v234.667h-42.667v-234.667c-0.092-1.247-0.145-2.701-0.145-4.168 0-33.124 26.853-59.977 59.977-59.977 1.467 0 2.921 0.053 4.361 0.156l-0.193-0.011h209.833l-48.917-48.917 30.167-30.165 100.416 100.416-100.416 100.416zM160 517.432v-42.667h193.937v42.667h-76.604v53.812h170.667c23.553 0.028 42.639 19.114 42.667 42.664v228.857c-0.028 23.553-19.114 42.639-42.664 42.667h-384.003c-23.553-0.028-42.639-19.114-42.667-42.664v-228.857c0.028-23.553 19.114-42.639 42.664-42.667h170.669v-53.812zM64 842.765h384l0.021-228.854h-384.021zM661.333 314.765v-298.667h341.333v298.667zM960 272.099v-42.667h-256v42.667zM960 186.765v-42.667h-256v42.667zM704 58.765v42.667h256v-42.667z" />
<glyph unicode="&#xe936;" glyph-name="Demenz_rgb" d="M829.279 714.667c-0.139 0.001-0.303 0.001-0.468 0.001-76.047 0-137.748-61.422-138.199-137.363v-0.043h42.159c0.71 52.76 43.646 95.256 96.507 95.256s95.797-42.497 96.506-95.189l0.001-0.067c0.017-0.689 0.026-1.501 0.026-2.315 0-54.898-43.289-99.685-97.593-102.089l-0.217-0.008-19.803-1.195v-151.656h42.16v113.271c67.432 13.254 117.598 71.893 117.598 142.248 0 0.613-0.004 1.224-0.011 1.835l0.001-0.093c-0.452 75.984-62.153 137.406-138.2 137.406-0.164 0-0.328 0-0.492-0.001h0.025zM871.945 224c0-23.564-19.103-42.667-42.667-42.667s-42.667 19.103-42.667 42.667c0 23.564 19.103 42.667 42.667 42.667s42.667-19.103 42.667-42.667zM664.147 5.286c-0.962-0.031-2.093-0.049-3.228-0.049-57.258 0-103.916 45.384-105.962 102.143l-0.005 0.187v675.534c2.052 56.945 48.71 102.331 105.968 102.331 1.135 0 2.266-0.018 3.392-0.053l-0.165 0.004c58.758 0 108.404-43.41 108.404-94.789h42.657c0 74.478-69.173 137.408-151.061 137.408-0.311 0.002-0.678 0.004-1.046 0.004-54.19 0-101.813-28.118-129.075-70.561l-0.366-0.61c-27.478 43.040-74.991 71.169-129.075 71.169-0.336 0-0.671-0.001-1.007-0.003h0.051c-0.569 0.008-1.241 0.012-1.914 0.012-71.487 0-131.261-50.145-146.069-117.179l-0.184-0.993c-69.92-11.003-122.982-70.121-124.471-141.915l-0.003-0.154c0.005-21.292 4.813-41.46 13.398-59.481l-0.359 0.838c-47.383-31.258-80.231-81.258-88.025-139.2l-0.112-1.018c-1.824-9.984-2.868-21.475-2.868-33.209 0-57.922 25.421-109.907 65.714-145.407l0.213-0.184c-0.093-2.277-0.146-4.949-0.146-7.634 0-50.253 18.505-96.184 49.073-131.351l-0.208 0.245c21.686-25.598 50.761-44.326 83.918-52.92l1.137-0.25c7.627-76.389 71.568-135.543 149.325-135.543 0.556 0 1.112 0.003 1.666 0.009l-0.085-0.001c0.283-0.002 0.618-0.003 0.954-0.003 54.084 0 101.598 28.13 128.709 70.557l0.367 0.614c27.628-43.053 75.252-71.172 129.443-71.172 0.367 0 0.734 0.001 1.1 0.004h-0.056c0.961-0.022 2.093-0.035 3.228-0.035 80.795 0 146.538 64.449 148.621 144.742l0.004 0.193h-42.657c-2.052-56.945-48.71-102.329-105.968-102.329-1.135 0-2.266 0.018-3.392 0.053l0.165-0.004zM512.294 682.609c-25.502 25.040-60.488 40.496-99.083 40.496-0.022 0-0.044 0-0.066 0h0.003v-42.618c0.015 0 0.032 0 0.050 0 54.635 0 98.943-44.213 99.096-98.812v-474.109c-1.899-56.909-48.489-102.322-105.686-102.322-1.047 0-2.091 0.015-3.131 0.045l0.153-0.004c-0.575-0.011-1.254-0.018-1.934-0.018-57.497 0-104.382 45.433-106.714 102.357l-0.007 0.211c-0.241 2.602-0.378 5.627-0.378 8.685 0 34.497 17.471 64.913 44.047 82.883l0.353 0.225-19.059 38.123c-34.15-20.641-58.228-55.007-64.664-95.261l-0.102-0.777c-22.179 7.703-40.866 20.697-55.207 37.511l-0.146 0.176c-23.881 27.657-38.428 63.955-38.428 103.651 0 5.233 0.253 10.407 0.747 15.51l-0.051-0.648 0.896 11.322-8.905 7.053c-35.646 28.11-58.321 71.296-58.321 119.779 0 9.319 0.838 18.443 2.442 27.299l-0.139-0.928c6.018 52.011 37.998 95.391 82.46 117.29l0.876 0.39 21.096 8.097c27.357 7.323 81.067 10.435 133.163-51.881l32.742 27.302c-65.488 78.327-141.421 78.238-185.512 63.409-5.772 11.92-9.173 25.918-9.237 40.703v0.022c1.892 55.471 46.507 99.923 101.868 101.548l0.153 0.004 18.849 1.082 1.208 18.833c5.159 54.151 50.412 96.17 105.479 96.17 0.853 0 1.703-0.010 2.551-0.030l-0.126 0.002c0.887 0.027 1.931 0.042 2.978 0.042 57.197 0 103.788-45.413 105.681-102.15l0.005-0.174zM217.721 452.68l-30.139-30.175c32.535-32.456 77.439-52.525 127.031-52.525 0.13 0 0.259 0 0.389 0h-0.020c1.237 0 2.475 0.153 3.712 0.177 35.584-11.835 61.54-43.050 65.519-80.816l0.035-0.415 42.449 4.328c-3.737 35.693-20.576 66.87-45.548 89.111l-0.138 0.121c23.919 9.479 44.341 23.048 61.364 40.023l-0.004-0.004-30.14 30.175c-24.936-24.789-59.306-40.111-97.255-40.111s-72.32 15.322-97.262 40.118l0.007-0.007z" />
<glyph unicode="&#xe937;" glyph-name="Devices_rgb" d="M21.344 159.804h629.313v-42.275h-629.313v42.275zM959.999 608h-213.333c-23.553-0.028-42.639-19.114-42.667-42.664v-405.336c0.028-23.553 19.114-42.639 42.664-42.667h213.336c23.553 0.028 42.639 19.114 42.667 42.664v405.336c-0.028 23.553-19.114 42.639-42.664 42.667h-0.003zM746.665 160v405.333h213.333l0.031-405.333zM880 229.333c0-14.728-11.939-26.667-26.667-26.667s-26.667 11.939-26.667 26.667c0 14.728 11.939 26.667 26.667 26.667s26.667-11.939 26.667-26.667zM106.665 224h544v42.667l-544-0.458v448.458l725.333 0.458v-53.792h42.667v53.792c-0.157 23.345-19.118 42.209-42.485 42.209-0.064 0-0.127 0-0.191 0h-725.323c-0.054 0-0.117 0-0.181 0-23.367 0-42.328-18.864-42.485-42.194v-448.932c0.158-23.345 19.119-42.208 42.485-42.208 0.064 0 0.127 0 0.191 0h-0.010z" />
<glyph unicode="&#xe938;" glyph-name="Diagramm_rgb" d="M469.333-42.667c-247.424 0-448 200.576-448 448s200.576 448 448 448v0h21.333l0.021-426.667h426.645v-21.333c-0.29-247.307-200.693-447.71-447.972-448h-0.028zM448.021 810.115c-214.503-11.639-384.030-188.41-384.030-404.777 0-223.862 181.476-405.338 405.338-405.338 216.356 0 393.121 169.511 404.731 382.969l0.045 1.031h-426.083zM1002.667 480h-458.667v458.667h21.333c241.416-0.29 437.043-195.917 437.333-437.305v-0.028zM586.667 522.667h372.771c-11.504 201.077-171.692 361.262-371.72 372.712l-1.051 0.048z" />
<glyph unicode="&#xe939;" glyph-name="Diamant_rgb" d="M1002.426 574.646l-153.758 228.959c-11.678 17.225-31.162 28.396-53.254 28.396-0.026 0-0.052 0-0.079 0h-568.949c-0.045 0-0.099 0-0.152 0-22.191 0-41.743-11.298-53.218-28.456l-0.146-0.232-151.508-228.416c-6.698-9.931-10.692-22.168-10.692-35.337 0-18.225 7.649-34.664 19.913-46.281l0.029-0.027 425.152-404c12.309-13.838 29.622-22.992 49.074-24.61l0.268-0.018c1.672-0.362 3.605-0.586 5.585-0.618h0.025l0.043-0.004h0.021c2.032 0.030 3.993 0.254 5.889 0.654l-0.199-0.035c19.093 1.424 35.927 10.079 47.966 23.203l0.048 0.053 428.736 404.667c12.394 11.651 20.114 28.152 20.114 46.456 0 13.302-4.077 25.651-11.049 35.867l0.142-0.22zM964.452 554.667h-246.409l105.413 209.952zM510.799 126.229l-142.159 385.771h284.241zM511.945 753.584l131.802-198.917h-265.632zM340.917 575.834l-104.965 213.499h248.638zM539.456 789.333h248.685l-107.21-213.542zM199.635 766.492l104.148-211.825h-244.644zM72.784 512h250.385l135.020-366.31zM563.256 145.277l135.096 366.723h253.307z" />
<glyph unicode="&#xe93a;" glyph-name="Digitale_Gesundheitsanwendungen_rgb" d="M891.444 890.957c-29.197 29.466-69.676 47.709-114.416 47.709s-85.219-18.244-114.404-47.697l-44.016-44.524-43.941 44.428c-29.205 29.516-69.717 47.793-114.499 47.793-44.74 0-85.219-18.244-114.404-47.697l-0.012-0.012c-29.119-29.744-47.088-70.503-47.088-115.46s17.969-85.716 47.116-115.489l-0.028 0.029 272.855-276.038 272.835 275.954c29.198 29.724 47.222 70.508 47.222 115.502s-18.024 85.778-47.246 115.526l0.024-0.024zM424.486 641.167h120.243l28.648 42.778 64.005-127.351 56.692 84.573h118.709l-194.173-196.397zM861.15 690.089l-6.054-6.123h-183.774l-28.648-42.777-64.005 127.35-56.692-84.573h-139.794l-6.135 6.207c-21.468 22.003-34.711 52.118-34.711 85.325s13.243 63.322 34.735 85.35l-0.024-0.025c21.475 21.646 51.233 35.045 84.122 35.045 32.93 0 62.722-13.434 84.195-35.119l74.245-75.074 74.297 75.148c21.475 21.646 51.233 35.045 84.121 35.045s62.647-13.4 84.114-35.038l0.008-0.008c21.585-21.967 34.909-52.111 34.909-85.367s-13.325-63.4-34.926-85.385l0.017 0.018zM405.333 106.667c0-23.564-19.103-42.667-42.667-42.667s-42.667 19.103-42.667 42.667c0 23.564 19.103 42.667 42.667 42.667s42.667-19.103 42.667-42.667zM597.333 64.125c-0.007-35.369-28.641-64.047-63.993-64.125h-341.34c-35.359 0.078-63.993 28.756-64 64.124v703.751c0.007 35.369 28.641 64.047 63.993 64.125h64.007v42.667h-64c-58.91-0.109-106.629-47.871-106.667-106.788v-703.754c0.038-58.92 47.756-106.682 106.656-106.792h341.344c58.91 0.109 106.629 47.871 106.667 106.788v255.171h-42.667z" />
<glyph unicode="&#xe93b;" glyph-name="Direkteinstieg_rgb" d="M192.002 469.842h-96.479l111.291 107.419-29.625 30.739-149.332-144.143c-4.025-3.891-6.524-9.338-6.524-15.369 0-5.762 2.281-10.991 5.988-14.834l-0.006 0.006 149.333-154.82 30.708 29.653-114.443 118.64h99.088c82.468-0.146 149.273-67.002 149.333-149.477v-320.323h42.667v320.318c-0.065 106.051-85.964 192.017-191.983 192.191h-0.017zM996.142 463.857l-149.332 144.143-29.625-30.739 111.291-107.419h-96.479c-106.035-0.175-191.933-86.141-191.998-192.185v-320.324h42.667v320.318c0.061 82.48 66.865 149.337 149.319 149.483h99.102l-114.442-118.639 30.708-29.653 149.332 154.82c3.702 3.836 5.982 9.065 5.982 14.827 0 6.031-2.499 11.479-6.518 15.364l-0.006 0.006zM641.12 753.187l30.88 29.625-144.803 149.333c-3.832 3.937-9.148 6.413-15.043 6.52h-0.020c-5.868-0.225-11.177-2.449-15.304-6.006l0.032 0.027-155.529-149.333 29.79-30.708 119.182 114.444v-909.757h42.905v907.147z" />
<glyph unicode="&#xe93c;" glyph-name="Dokument_rgb" d="M298.667 661.333h426.667v-42.667h-426.667v42.667zM298.667 512h426.667v-42.667h-426.667v42.667zM298.667 362.667h426.667v-42.667h-426.667v42.667zM768-42.667h-512c-58.882 0.071-106.595 47.785-106.667 106.66v768.007c0.071 58.882 47.785 106.595 106.66 106.667h512.007c58.882-0.071 106.595-47.785 106.667-106.66v-768.007c-0.071-58.882-47.785-106.595-106.66-106.667h-0.007zM256 896c-35.33-0.040-63.96-28.67-64-63.996v-768.004c0.040-35.33 28.67-63.96 63.996-64h512.004c35.33 0.040 63.96 28.67 64 63.996v768.004c-0.040 35.33-28.67 63.96-63.996 64h-0.004z" />
<glyph unicode="&#xe93d;" glyph-name="Download_Folder_rgb" d="M512 213.333c-0.006 0-0.013 0-0.021 0-5.745 0-10.958 2.276-14.788 5.975l0.006-0.006-160 154.073 29.604 30.729 123.865-119.281v291.177h42.667v-291.177l123.865 119.281 29.604-30.729-160-154.073c-3.823-3.693-9.037-5.969-14.781-5.969-0.007 0-0.015 0-0.022 0h0.001zM891.937 64h-759.875c-61.11 0.055-110.638 49.562-110.729 110.658v536.009c0.091 61.105 49.619 110.612 110.724 110.667h180.693c0 0 0 0 0.001 0 4.119 0 7.965-1.167 11.227-3.189l-0.091 0.053 181.177-110.833h386.874c61.109-0.055 110.638-49.561 110.729-110.657v-422.040c-0.091-61.105-49.62-110.611-110.724-110.666h-0.005zM132.063 778.667c-37.558-0.024-68.003-30.447-68.062-67.995v-536.006c0.059-37.553 30.504-67.976 68.060-68h759.877c37.558 0.024 68.003 30.446 68.062 67.994v422.037c-0.059 37.553-30.504 67.976-68.060 68h-392.888c0 0 0 0-0.001 0-4.119 0-7.965 1.167-11.227 3.189l0.091-0.053-181.177 110.833z" />
<glyph unicode="&#xe93e;" glyph-name="Download_rgb" d="M874.667-21.333h-725.333c-58.882 0.071-106.595 47.785-106.667 106.66v213.34h42.667v-213.333c0.040-35.33 28.67-63.96 63.996-64h725.337c35.33 0.040 63.96 28.67 64 63.996v213.337h42.667v-213.333c-0.071-58.882-47.785-106.595-106.66-106.667h-0.007zM512 192c-0.006 0-0.013 0-0.021 0-5.745 0-10.958 2.276-14.788 5.975l0.006-0.006-288 277.333 29.604 30.729 251.865-242.542v653.844h42.667v-653.844l251.865 242.542 29.604-30.729-288-277.333c-3.823-3.693-9.037-5.969-14.781-5.969-0.007 0-0.015 0-0.022 0h0.001z" />
<glyph unicode="&#xe93f;" glyph-name="Duales_Studium_rgb" d="M806.68 430.441c22.874-29.695 36.66-67.418 36.66-108.361 0-21.946-3.961-42.967-11.207-62.387l0.403 1.233q112.711-115.104 158.155-161.173l14.109-14.315-117.68-131.115-22.691 22.621q-8.964 8.939-20.019 19.992l-14.016 14.025q-7.385 7.393-15.521 15.546l-11.183 11.21q-40.312 40.417-97.005 97.406c-55.627-23.765-135.215-8.555-189.48 38.208-59.584 51.328-74.524 126.165-40.943 205.333 4.097 9.442 13.338 15.927 24.094 15.927 3.696 0 7.212-0.765 10.401-2.147l-0.17 0.065 4.043-1.707 4.618-4.267 80.886-82.816 51.584 15.36 14.726 48.747-81.716 83.051c-4.566 4.654-7.384 11.038-7.384 18.079 0 7.159 2.913 13.637 7.618 18.314l0.001 0.001c3.248 3.236 7.369 5.599 11.978 6.706l0.173 0.035c87.672 20.565 163.983-2.667 209.565-63.573zM637.736 457.747l76.736-77.995-28.665-95.061-98.145-29.184-80.674 82.581c-3.927-11.463-6.195-24.669-6.195-38.405 0-37.719 17.097-71.445 43.963-93.852l0.196-0.159c44.667-38.507 115.509-50.56 154.665-26.347l14.343 8.875 11.917-11.968q62.226-62.548 105.754-106.197l11.275-11.303q16.413-16.451 29.836-29.875l12.674-12.668 60.904 67.861q-49.732 50.528-154.623 157.696l-11.172 11.435 7.81 13.952c7.817 16.42 12.382 35.682 12.382 56.010 0 30.926-10.565 59.385-28.283 81.963l0.218-0.288c-25.913 33.533-66.142 54.918-111.365 54.918-8.32 0-16.471-0.724-24.393-2.112l0.842 0.122zM213.327 320l-0.015 0.021-74.539 0.149c10.101-28.242 15.939-60.823 15.939-94.768 0-0.493-0.001-0.986-0.004-1.479v0.076c0.002-0.434 0.004-0.948 0.004-1.462 0-33.865-5.839-66.367-16.564-96.553l0.625 2.015h331.179v-42.667h-397.717l15.317 30.805c15.454 30.853 24.5 67.222 24.5 105.704 0 0.758-0.004 1.516-0.011 2.273l0.001-0.116c0.005 0.606 0.009 1.323 0.009 2.040 0 38.604-9.053 75.093-25.153 107.46l0.632-1.404-15.253 30.891 128.512-0.299c12.273 26.185 19.435 56.862 19.435 89.212 0 2.379-0.039 4.75-0.116 7.11l0.009-0.344c0.069 2.026 0.108 4.407 0.108 6.797 0 32.349-7.171 63.023-20.009 90.52l0.552-1.317-76.651 0.363c-46.891 8.64-102.784 39.659-102.784 138.304s55.893 129.664 102.784 138.304l3.883 0.363h716.459l-14.528-30.507c-14.861-30.993-23.542-67.375-23.542-105.784 0-0.835 0.004-1.67 0.012-2.503l-0.001 0.128c-0.005-0.578-0.007-1.261-0.007-1.946 0-33.885 6.672-66.212 18.773-95.738l-0.611 1.684 74.091-0.171c47.445-5.909 104.021-34.773 104.021-138.496s-56.576-132.587-104.021-138.496l-5.291 42.325c28.587 3.584 66.645 17.451 66.645 96.171 0 77.589-36.928 92.16-65.387 96l-647.399 0.006c9.891-27.158 15.611-58.509 15.611-91.196 0-1.691-0.015-3.378-0.046-5.062l0.004 0.252c0.027-1.431 0.042-3.119 0.042-4.81 0-32.687-5.72-64.038-16.214-93.106l0.602 1.91 158.112 0.006v-42.667zM779.029 789.333h-649.024c-28.885-5.717-66.005-22.443-66.005-96s37.12-90.283 66.005-96l649.023 0.015c-9.699 28.176-15.299 60.643-15.299 94.418 0 0.551 0.001 1.101 0.004 1.651v-0.085c-0.002 0.454-0.004 0.991-0.004 1.529 0 33.793 5.6 66.279 15.924 96.579l-0.624-2.108z" />
<glyph unicode="&#xe940;" glyph-name="Elektronische_Gesundheitskarte_rgb" d="M149.333 490.667h256v-42.667h-256v42.667zM149.333 362.667h256v-42.667h-256v42.667zM704 469.333c47.128 0 85.333 38.205 85.333 85.333s-38.205 85.333-85.333 85.333c-47.128 0-85.333-38.205-85.333-85.333v0c0.049-47.109 38.225-85.285 85.329-85.333h0.005zM704 597.333c23.564 0 42.667-19.103 42.667-42.667s-19.103-42.667-42.667-42.667c-23.564 0-42.667 19.103-42.667 42.667v0c0.032 23.551 19.115 42.635 42.664 42.667h0.003zM544.563 385.728l-14.896-8.021 4.396-16.333c22.508-73.881 90.054-126.708 169.937-126.708s147.429 52.827 169.608 125.452l0.33 1.256 4.396 16.333-14.896 8.021c-46.113 25.284-101.039 40.156-159.437 40.156s-113.324-14.872-161.195-41.036l1.757 0.879zM704 277.333c-0.454-0.006-0.991-0.009-1.528-0.009-53.887 0-100.295 32.019-121.236 78.070l-0.34 0.835c36.077 17.242 78.415 27.312 123.104 27.312s87.027-10.071 124.866-28.067l-1.762 0.754c-21.281-46.885-67.689-78.905-121.576-78.905-0.537 0-1.074 0.003-1.609 0.010l0.081-0.001zM896 746.667h-768c-58.882-0.071-106.595-47.785-106.667-106.66v-405.34c0.071-58.882 47.785-106.595 106.66-106.667h768.007c58.882 0.071 106.595 47.785 106.667 106.66v405.34c-0.071 58.882-47.785 106.595-106.66 106.667h-0.007zM960 234.667c-0.040-35.33-28.67-63.96-63.996-64h-768.004c-35.33 0.040-63.96 28.67-64 63.996v405.337c0.040 35.33 28.67 63.96 63.996 64h768.004c35.33-0.040 63.96-28.67 64-63.996v-0.004z" />
<glyph unicode="&#xe941;" glyph-name="Elektronische_Patientenquittung_rgb" d="M533.333 810.667h213.333v-42.667h-213.333v42.667zM533.333 704h213.333v-42.667h-213.333v42.667zM533.333 597.333h213.333v-42.667h-213.333v42.667zM715.667 357.062l-75.667 54.063-75.667-54.063-65.271 54.396-93.729-53.562v538.104c0.032 23.551 19.115 42.635 42.664 42.667h384.003c23.551-0.032 42.635-19.115 42.667-42.664v-538.107l-93.729 53.562zM640 463.542l73.667-52.604 62.729 52.271 55.604-31.771v464.604l-384-0.042v-464.563l55.604 31.771 62.729-52.271zM437.333 106.667c0-23.564-19.103-42.667-42.667-42.667s-42.667 19.103-42.667 42.667c0 23.564 19.103 42.667 42.667 42.667s42.667-19.103 42.667-42.667zM554.667-42.667h-320c-58.882 0.071-106.595 47.785-106.667 106.66v682.674c0.071 58.882 47.785 106.595 106.66 106.667h106.673v-42.667h-106.667c-35.33-0.040-63.96-28.67-64-63.996v-682.671c0.040-35.33 28.67-63.96 63.996-64h320.004c35.33 0.040 63.96 28.67 64 63.996v256.004h42.667v-256c-0.071-58.882-47.785-106.595-106.66-106.667h-0.007z" />
</font>
</defs>
</svg>
