<?xml version="1.0" standalone="no"?>
<!DOCTYPE svg PUBLIC "-//W3C//DTD SVG 1.1//EN" "http://www.w3.org/Graphics/SVG/1.1/DTD/svg11.dtd" >
<svg xmlns="http://www.w3.org/2000/svg">
<metadata>Generated by IcoMoon</metadata>
<defs>
<font id="aok-icons-functional-2023" horiz-adv-x="1024">
<font-face units-per-em="1024" ascent="960" descent="-64" />
<missing-glyph horiz-adv-x="1024" />
<glyph unicode="&#x20;" horiz-adv-x="512" d="" />
<glyph unicode="&#xe900;" glyph-name="Adress-Book" d="M821.333 938.667c76.459 0 138.667-62.208 138.667-138.667v0-704c0-76.459-62.208-138.667-138.667-138.667v0h-512c-76.459 0-138.667 62.208-138.667 138.667v0 704c0 76.459 62.208 138.667 138.667 138.667v0zM821.333 832h-512c-17.643 0-32-14.357-32-32v0-704c0-20.024 10.568-32 32-32v0h512c22.057 0 32 11.393 32 32v0 704c0 17.643-14.357 32-32 32v0zM149.333 298.667v-106.667h-106.667v106.667h106.667zM640 405.333v-106.667h-256v106.667h256zM149.333 512v-106.667h-106.667v106.667h106.667zM746.667 618.667v-106.667h-362.667v106.667h362.667zM149.333 725.333v-106.667h-106.667v106.667h106.667z" />
<glyph unicode="&#xe901;" glyph-name="Alert" d="M512 938.667c270.571 0 490.667-220.117 490.667-490.667 0-270.571-220.096-490.667-490.667-490.667-270.549 0-490.667 220.096-490.667 490.667 0 270.549 220.117 490.667 490.667 490.667zM512 832c-211.733 0-384-172.267-384-384s172.267-384 384-384c211.733 0 384 172.267 384 384s-172.267 384-384 384zM512 256c35.349 0 64-28.651 64-64s-28.651-64-64-64c-35.349 0-64 28.651-64 64s28.651 64 64 64zM565.333 746.667v-426.667h-106.667v426.667h106.667z" />
<glyph unicode="&#xe902;" glyph-name="Alert-Circle-Filled" d="M512 938.667c270.571 0 490.667-220.117 490.667-490.667 0-270.571-220.096-490.667-490.667-490.667-270.549 0-490.667 220.096-490.667 490.667 0 270.549 220.117 490.667 490.667 490.667zM512 256c-35.349 0-64-28.651-64-64s28.651-64 64-64c35.349 0 64 28.651 64 64s-28.651 64-64 64zM565.333 746.667h-106.667v-426.667h106.667v426.667z" />
<glyph unicode="&#xe903;" glyph-name="Android" d="M156.859 620.798c-16.942 0-31.316-5.896-43.133-17.689s-17.726-25.944-17.726-42.46v-253.588c0-16.93 5.908-31.263 17.726-43.058 11.816-11.793 26.191-17.691 43.133-17.691 16.929 0 31.217 5.896 42.85 17.691 11.61 11.793 17.431 26.128 17.431 43.058v253.588c0 16.518-5.908 30.667-17.726 42.46s-26.006 17.689-42.555 17.689zM646.141 848.444l41.956 77.243c2.754 5.114 1.774 9.035-2.948 11.793-5.126 2.378-9.064 1.173-11.816-3.529l-42.542-77.861c-37.434 16.518-77.027 24.792-118.778 24.792-41.76 0-81.356-8.276-118.776-24.792l-42.544 77.861c-2.765 4.702-6.703 5.896-11.816 3.529-4.733-2.77-5.712-6.679-2.948-11.793l41.957-77.243c-42.544-21.653-76.428-51.809-101.639-90.534-25.211-38.746-37.822-81.087-37.822-127.097h546.582c0 46-12.613 88.342-37.822 127.097-25.213 38.725-58.901 68.881-101.043 90.534zM403.573 736.092c-4.537-4.539-9.956-6.798-16.256-6.798-6.312 0-11.621 2.259-15.952 6.798-4.331 4.518-6.497 9.905-6.497 16.213 0 6.287 2.166 11.684 6.497 16.213 4.331 4.518 9.652 6.776 15.952 6.776s11.718-2.259 16.256-6.776c4.527-4.539 6.801-9.926 6.801-16.213-0.012-6.297-2.285-11.695-6.801-16.213zM652.636 736.092c-4.34-4.539-9.661-6.798-15.95-6.798-6.313 0-11.731 2.259-16.259 6.798-4.535 4.518-6.799 9.905-6.799 16.213 0 6.287 2.263 11.684 6.799 16.213 4.528 4.518 9.946 6.776 16.259 6.776 6.299 0 11.608-2.259 15.95-6.776 4.335-4.539 6.497-9.926 6.497-16.213 0-6.297-2.164-11.695-6.497-16.213zM240.771 216.831c0-18.102 6.299-33.426 18.899-46.001 12.611-12.575 27.965-18.862 46.091-18.862h43.73l0.599-133.886c0-16.907 5.908-31.263 17.724-43.058s26.006-17.691 42.544-17.691c16.931 0 31.315 5.896 43.133 17.691s17.726 26.149 17.726 43.058v133.874h81.543v-133.874c0-16.907 5.906-31.263 17.724-43.058s26.189-17.691 43.133-17.691c16.931 0 31.315 5.896 43.133 17.691s17.724 26.149 17.724 43.058v133.874h44.32c17.724 0 32.881 6.288 45.504 18.864 12.598 12.575 18.901 27.899 18.901 46v392.784h-542.429v-392.772zM867.143 620.798c-16.551 0-30.728-5.809-42.546-17.396-11.816-11.608-17.724-25.867-17.724-42.753v-253.588c0-16.93 5.906-31.263 17.724-43.058s26.006-17.691 42.546-17.691c16.931 0 31.315 5.896 43.133 17.691s17.724 26.128 17.724 43.058v253.588c0 16.887-5.906 31.144-17.724 42.753-11.818 11.587-26.201 17.396-43.133 17.396z" />
<glyph unicode="&#xe904;" glyph-name="Apple" d="M519.431 654.73c59.365 0 151.060 113.316 318.921 0 20.645-13.937 36.421-29.887 48.424-47.36-79.507-62.47-107.751-113.729-107.751-200.475 0-89.325 78.926-171.283 129.739-182.623-13.708-78.204-117.78-266.938-213.528-266.938-59.402 0-111.947 40.208-170.472 40.208-60.605 0-90.814-40.208-159.934-40.208-72.099 0-176.904 147.517-214.878 266.938-2.298 7.225-4.728 14.192-7.19 21.119l-4.936 13.863c-7.376 20.907-14.424 42.753-18.395 71.413-15.859 114.461 10.805 263.23 115.078 329.586 147.533 93.884 225.557-5.522 284.922-5.522zM707.706 938.667c0-218.63-177.792-226.146-194.331-226.373l-1.23-0.005c0 0-17.396 198.557 195.561 226.377z" />
<glyph unicode="&#xe905;" glyph-name="Arrow-Down" d="M512 181.333c-13.781 0-27.563 5.248-38.080 15.765l-452.587 452.117 76.181 76.117 414.485-414.059 414.485 414.059 76.181-76.117-452.587-452.117c-10.517-10.517-24.299-15.765-38.080-15.765z" />
<glyph unicode="&#xe906;" glyph-name="Arrow-Left" d="M234.667 448c0 13.781 5.248 27.563 15.765 38.080l452.117 452.587 76.117-76.181-414.059-414.485 414.059-414.485-76.117-76.181-452.117 452.587c-10.517 10.517-15.765 24.299-15.765 38.080z" />
<glyph unicode="&#xe907;" glyph-name="Arrow-Left-Circle-Filled" d="M512 938.667c270.571 0 490.667-220.117 490.667-490.667 0-270.571-220.096-490.667-490.667-490.667-270.549 0-490.667 220.096-490.667 490.667 0 270.549 220.117 490.667 490.667 490.667zM474.421 709.845l-224.128-223.595c-20.843-20.8-20.843-54.507-0.021-75.285v0l224.128-223.808 75.456 75.285-133.056 132.843h393.877v106.453h-393.963l133.12 132.821-75.413 75.285z" />
<glyph unicode="&#xe908;" glyph-name="Arrow-Left-Outline" d="M512 938.667c270.571 0 490.667-220.117 490.667-490.667 0-270.571-220.096-490.667-490.667-490.667-270.549 0-490.667 220.096-490.667 490.667 0 270.549 220.117 490.667 490.667 490.667zM512 832c-211.733 0-384-172.267-384-384s172.267-384 384-384c211.733 0 384 172.267 384 384s-172.267 384-384 384zM474.421 709.845l75.413-75.285-133.12-132.821h393.963v-106.453h-393.877l133.056-132.843-75.456-75.285-224.128 223.808c-20.821 20.779-20.821 54.485 0.021 75.285l224.128 223.595z" />
<glyph unicode="&#xe909;" glyph-name="Arrow-Right" d="M789.333 448c0 13.781-5.248 27.563-15.765 38.080l-452.117 452.587-76.117-76.181 414.059-414.485-414.059-414.485 76.117-76.181 452.117 452.587c10.517 10.517 15.765 24.299 15.765 38.080z" />
<glyph unicode="&#xe90a;" glyph-name="Arrow-Right-Circle" d="M512 938.667c270.571 0 490.667-220.117 490.667-490.667 0-270.571-220.096-490.667-490.667-490.667-270.549 0-490.667 220.096-490.667 490.667 0 270.549 220.117 490.667 490.667 490.667zM512 832c-211.733 0-384-172.267-384-384s172.267-384 384-384c211.733 0 384 172.267 384 384s-172.267 384-384 384zM570.914 709.845l224.128-223.595c20.843-20.8 20.843-54.507 0.021-75.285v0l-224.128-223.808-75.456 75.285 133.056 132.843h-393.877v106.453h393.963l-133.12 132.821 75.413 75.285z" />
<glyph unicode="&#xe90b;" glyph-name="Arrow-Right-Circle-Filled" d="M512 938.667c270.571 0 490.667-220.117 490.667-490.667 0-270.571-220.096-490.667-490.667-490.667-270.549 0-490.667 220.096-490.667 490.667 0 270.549 220.117 490.667 490.667 490.667zM570.914 709.845l-75.413-75.285 133.12-132.821h-393.963v-106.453h393.877l-133.056-132.843 75.456-75.285 224.128 223.808c20.821 20.779 20.821 54.485-0.021 75.285l-224.128 223.595z" />
<glyph unicode="&#xe90c;" glyph-name="Arrow-Rounded-Down" d="M517.333-42.667c-13.632 0-27.264 5.205-37.675 15.616l-372.992 373.333 75.349 75.435 282.027-282.304v799.253h106.581v-799.253l282.027 282.304 75.349-75.435-372.992-373.333c-10.411-10.411-24.043-15.616-37.675-15.616z" />
<glyph unicode="&#xe90d;" glyph-name="Arrow-Rounded-Left" d="M21.333 442.667c0 13.632 5.205 27.264 15.616 37.675l373.333 372.992 75.435-75.349-282.304-282.027h799.253v-106.581h-799.253l282.304-282.027-75.435-75.349-373.333 372.992c-10.411 10.411-15.616 24.043-15.616 37.675z" />
<glyph unicode="&#xe90e;" glyph-name="Arrow-Rounded-Leftdown" d="M164.907 100.917c-9.643 9.621-15.595 22.933-15.573 37.675l0.235 527.36 106.517 0.043-0.171-398.763 564.757 564.779 75.328-75.307-564.779-564.779 398.763 0.171-0.043-106.517-527.381-0.235c-14.699 0-28.011 5.931-37.653 15.573z" />
<glyph unicode="&#xe90f;" glyph-name="Arrow-Rounded-Leftup" d="M143.573 816.427c9.643 9.643 22.955 15.595 37.653 15.573l527.381-0.235 0.043-106.517-398.763 0.171 564.779-564.757-75.328-75.328-564.757 564.779 0.171-398.763-106.517 0.043-0.235 527.381c-0.021 14.699 5.931 28.011 15.573 37.653z" />
<glyph unicode="&#xe910;" glyph-name="Arrow-Rounded-Right" d="M1002.667 448c0-13.632-5.205-27.264-15.616-37.675l-373.333-372.992-75.435 75.349 282.304 282.027h-799.253v106.581h799.253l-282.304 282.027 75.435 75.349 373.333-372.992c10.411-10.411 15.616-24.043 15.616-37.675z" />
<glyph unicode="&#xe911;" glyph-name="Arrow-Rounded-Rightdown" d="M880.416 79.584c-9.621-9.643-22.933-15.573-37.675-15.573l-527.36 0.235-0.043 106.517 398.763-0.171-564.779 564.779 75.307 75.307 564.779-564.779-0.171 398.763 106.517-0.043 0.235-527.36c0-14.741-5.931-28.053-15.573-37.675z" />
<glyph unicode="&#xe912;" glyph-name="Arrow-Rounded-Rightup" d="M880.416 816.427c9.643-9.643 15.573-22.955 15.573-37.653l-0.235-527.381-106.517-0.043 0.171 398.763-564.779-564.779-75.307 75.328 564.779 564.757-398.763-0.171 0.043 106.517 527.36 0.235c14.741 0.021 28.053-5.931 37.675-15.573z" />
<glyph unicode="&#xe913;" glyph-name="Arrow-Rounded-Up" d="M512 938.667c13.632 0 27.264-5.205 37.675-15.616l372.992-373.333-75.349-75.435-282.027 282.304v-799.253h-106.581v799.253l-282.027-282.304-75.349 75.435 372.992 373.333c10.411 10.411 24.043 15.616 37.675 15.616z" />
<glyph unicode="&#xe914;" glyph-name="Arrow-Small-Down" d="M473.92 303.765l-260.587 260.117 76.181 76.117 222.485-222.059 222.485 222.059 76.181-76.117-260.587-260.117c-10.517-10.517-24.299-15.765-38.080-15.765s-27.563 5.248-38.080 15.765z" />
<glyph unicode="&#xe915;" glyph-name="Arrow-Small-Left" d="M335.765 409.92l260.117-260.587 76.117 76.181-222.059 222.485 222.059 222.485-76.117 76.181-260.117-260.587c-10.517-10.517-15.765-24.299-15.765-38.080s5.248-27.563 15.765-38.080z" />
<glyph unicode="&#xe916;" glyph-name="Arrow-Small-Right" d="M688.235 409.92l-260.117-260.587-76.117 76.181 222.059 222.485-222.059 222.485 76.117 76.181 260.117-260.587c10.517-10.517 15.765-24.299 15.765-38.080s-5.248-27.563-15.765-38.080z" />
<glyph unicode="&#xe917;" glyph-name="Arrow-Small-Up" d="M473.92 592.235l-260.587-260.117 76.181-76.117 222.485 222.059 222.485-222.059 76.181 76.117-260.587 260.117c-10.517 10.517-24.299 15.765-38.080 15.765s-27.563-5.248-38.080-15.765z" />
<glyph unicode="&#xe918;" glyph-name="Arrow-Up" d="M512 714.667c-13.781 0-27.563-5.248-38.080-15.765l-452.587-452.117 76.181-76.117 414.485 414.059 414.485-414.059 76.181 76.117-452.587 452.117c-10.517 10.517-24.299 15.765-38.080 15.765z" />
<glyph unicode="&#xe919;" glyph-name="Audio" d="M725.34 806.319l-367.851-251.221h-165.483v-213.803h165.483l367.851-251.221v716.245zM832.006 34.948c0-29.227-16.064-55.68-41.92-69.013-11.157-5.76-23.211-8.597-35.243-8.597-15.659 0-31.232 4.821-44.544 14.336l-385.109 262.72h-239.851v427.605h239.829l386.475 263.616c21.632 15.445 51.691 17.515 77.077 4.416 26.688-13.803 43.285-40.981 43.285-70.955v-824.128z" />
<glyph unicode="&#xe91a;" glyph-name="Backwards" d="M531.893 938.667l76.096-76.181-414.037-414.485 414.037-414.485-76.096-76.181-452.117 452.587c-21.035 21.035-21.035 55.125 0 76.16l452.117 452.587zM883.893 938.667l76.096-76.181-414.059-414.485 414.059-414.485-76.096-76.181-452.117 452.587c-21.035 21.035-21.035 55.125 0 76.16l452.117 452.587z" />
<glyph unicode="&#xe91b;" glyph-name="Become-member" d="M468.239 458.667c60.608 0 122.475-7.701 183.851-22.912v0l-25.749-103.531c-52.971 13.141-106.155 19.797-158.101 19.797-105.259 0-212.651-26.752-319.829-79.595 50.816-126.229 174.507-208.448 319.829-208.448 52.523 0 102.592 10.645 148.843 31.616v0l44.245-97.045c-60.245-27.371-125.205-41.216-193.088-41.216-209.408 0-384.768 131.755-436.352 327.829v0l-10.56 40.085 36.352 20.096c136.085 75.2 274.219 113.323 410.56 113.323zM896 384v-106.667h106.667v-106.667h-106.667v-106.667h-106.667v106.667h-106.667v106.667h106.667v106.667h106.667zM469.333 938.667c105.877 0 192-86.144 192-192s-86.123-192-192-192c-105.856 0-192 86.144-192 192s86.144 192 192 192zM469.333 832c-47.061 0-85.333-38.272-85.333-85.333s38.272-85.333 85.333-85.333c47.061 0 85.333 38.272 85.333 85.333s-38.272 85.333-85.333 85.333z" />
<glyph unicode="&#xe91c;" glyph-name="Bookmark" d="M511.104 224.791l192.896-131.989v739.2h-384v-738.987l191.104 131.776zM288.363-42.665c-11.584 0-23.339 2.709-34.219 8.235-25.173 12.8-40.811 38.315-40.811 66.56v906.539h597.333v-906.539c0-28.245-15.637-53.76-40.811-66.56-25.173-12.757-54.976-10.432-77.803 6.208l-180.715 123.605-180.523-124.416c-12.309-8.981-27.243-13.632-42.453-13.632v0z" />
<glyph unicode="&#xe91d;" glyph-name="Bookmark-Filled" d="M288.363-42.665c-11.584 0-23.339 2.709-34.219 8.235-25.173 12.8-40.811 38.315-40.811 66.56v906.539h597.333v-906.539c0-28.245-15.637-53.76-40.811-66.56-25.173-12.757-54.976-10.432-77.803 6.208l-180.715 123.605-180.523-124.416c-12.309-8.981-27.243-13.632-42.453-13.632v0z" />
<glyph unicode="&#xe91e;" glyph-name="Bookmarks-List" d="M277.325 938.675v-106.47h-149.333v-739.178l192 133.322 192-133.322v185.577h106.667v-246.712c0-15.289-4.608-30.025-13.376-42.545-11.349-16.354-28.437-27.299-48.085-30.812-4.437-0.809-8.896-1.192-13.333-1.192-15.083 0-29.824 4.557-42.475 13.351l-181.397 125.954-181.355-125.911c-12.523-8.752-27.285-13.373-42.645-13.373-41.152 0-74.667 33.432-74.667 74.529v906.783h256zM1002.667 511.998v-106.667h-597.333v106.667h597.333zM1002.667 725.331v-106.667h-597.333v106.667h597.333zM405.355 938.662l597.311-0.085v-106.667l-597.333 0.085 0.022 106.667z" />
<glyph unicode="&#xe91f;" glyph-name="Calendar" d="M864 64h-704c-17.643 0-32 14.357-32 32v330.667h768v-330.667c0-17.643-14.357-32-32-32zM160 746.667h117.333v-85.333h106.667v85.333h256v-85.333h106.667v85.333h117.333c17.643 0 32-14.357 32-32v-181.333h-768v181.333c0 17.643 14.357 32 32 32zM864 853.333h-117.333v85.333h-106.667v-85.333h-256v85.333h-106.667v-85.333h-117.333c-76.459 0-138.667-62.208-138.667-138.667v-618.667c0-76.459 62.208-138.667 138.667-138.667h704c76.459 0 138.667 62.208 138.667 138.667v618.667c0 76.459-62.208 138.667-138.667 138.667z" />
<glyph unicode="&#xe920;" glyph-name="Calendar-Check" d="M384 938.667v-85.333h256v85.333h106.667v-85.333h117.333c76.459 0 138.667-62.208 138.667-138.667v0-74.667h-106.667v74.667c0 17.643-14.357 32-32 32v0h-117.333v-85.333h-106.667v85.333h-256v-85.333h-106.667v85.333h-117.333c-17.643 0-32-14.357-32-32v0-160h512v-106.667h-512v-352c0-17.673 14.327-32 32-32v0h704c17.673 0 32 14.327 32 32v0 202.667h106.667v-202.667c0-74.797-59.533-135.955-133.701-138.579l-4.966-0.088h-704c-76.459 0-138.667 62.208-138.667 138.667v0 618.667c0 76.459 62.208 138.667 138.667 138.667v0h117.333v85.333h106.667zM896.238 559.36l76.629-74.197-330.688-341.333c-9.92-10.283-23.573-16.107-37.867-16.235h-0.427c-14.144 0-27.712 5.632-37.717 15.616l-160 160 75.435 75.435 121.685-121.707 292.949 302.421z" />
<glyph unicode="&#xe921;" glyph-name="Cancel-Circle" d="M512 938.667c270.571 0 490.667-220.117 490.667-490.667 0-270.571-220.096-490.667-490.667-490.667-270.549 0-490.667 220.096-490.667 490.667 0 270.549 220.117 490.667 490.667 490.667zM512 832c-211.733 0-384-172.267-384-384s172.267-384 384-384c211.733 0 384 172.267 384 384s-172.267 384-384 384zM669.867 682.667l76.8-76.779-157.867-157.888 157.867-157.867-76.8-76.8-157.867 157.888-157.867-157.888-76.8 76.8 157.867 157.867-157.867 157.888 76.8 76.779 157.867-157.867 157.867 157.867z" />
<glyph unicode="&#xe922;" glyph-name="Cancel-Circle-Filled" d="M789.333 247.467l-76.8-76.8-200.533 200.555-200.533-200.555-76.8 76.8 200.533 200.533-200.533 200.555 76.8 76.779 200.533-200.533 200.533 200.533 76.8-76.779-200.533-200.555 200.533-200.533zM512 938.667c-270.997 0-490.667-219.669-490.667-490.667 0-270.976 219.669-490.667 490.667-490.667 270.976 0 490.667 219.691 490.667 490.667 0 270.997-219.691 490.667-490.667 490.667v0z" />
<glyph unicode="&#xe923;" glyph-name="Caret-Down" d="M50.111 580.852c-9.771 16.469-9.92 36.949-0.469 53.589 9.493 16.64 27.179 26.923 46.336 26.923h832.080c19.157 0 36.843-10.283 46.336-26.923 4.672-8.192 6.997-17.301 6.997-26.411 0-9.408-2.475-18.795-7.467-27.179-4.002-5.933-7.396-10.125-10.181-12.576-91.516-80.54-229.574-200.836-414.174-360.885-7.486-7.248-20.331-15.362-37.513-15.362s-28.438 6.893-37.403 15.362c-185.53 160.954-323.925 281.571-415.184 361.85-3.084 2.713-6.203 6.583-9.359 11.612z" />
<glyph unicode="&#xe924;" glyph-name="Caret-Left" d="M644.824 909.947c16.469 9.771 36.949 9.92 53.589 0.469 16.64-9.493 26.923-27.179 26.923-46.336v-832.080c0-19.157-10.283-36.843-26.923-46.336-8.192-4.672-17.301-6.997-26.411-6.997-9.408 0-18.795 2.475-27.179 7.467-5.933 4.002-10.125 7.396-12.576 10.181-80.54 91.516-200.836 229.574-360.885 414.174-7.248 7.486-15.362 20.331-15.362 37.513s6.893 28.438 15.362 37.403c160.954 185.53 281.571 323.925 361.85 415.184 2.713 3.084 6.583 6.203 11.612 9.359z" />
<glyph unicode="&#xe925;" glyph-name="Caret-Right" d="M379.179 909.947c-16.469 9.771-36.949 9.92-53.589 0.469-16.64-9.493-26.923-27.179-26.923-46.336v-832.080c0-19.157 10.283-36.843 26.923-46.336 8.192-4.672 17.301-6.997 26.411-6.997 9.408 0 18.795 2.475 27.179 7.467 5.933 4.002 10.125 7.396 12.576 10.181 80.54 91.516 200.836 229.574 360.885 414.174 7.248 7.486 15.362 20.331 15.362 37.513s-6.893 28.438-15.362 37.403c-160.954 185.53-281.571 323.925-361.85 415.184-2.713 3.084-6.583 6.203-11.612 9.359z" />
<glyph unicode="&#xe926;" glyph-name="Caret-Select" d="M734.485 309.261l76.181-76.117-260.587-260.117c-10.517-10.517-24.299-15.765-38.080-15.765s-27.563 5.248-38.080 15.765l-260.587 260.117 76.181 76.117 222.485-222.059 222.485 222.059zM512.003 938.667c13.781 0 27.563-5.248 38.080-15.765v0l260.587-260.117-76.181-76.117-222.485 222.059-222.485-222.059-76.181 76.117 260.587 260.117c10.517 10.517 24.299 15.765 38.080 15.765z" />
<glyph unicode="&#xe927;" glyph-name="Caret-Up" d="M50.111 315.207c-9.771-16.469-9.92-36.949-0.469-53.589 9.493-16.64 27.179-26.923 46.336-26.923h832.080c19.157 0 36.843 10.283 46.336 26.923 4.672 8.192 6.997 17.301 6.997 26.411 0 9.408-2.475 18.795-7.467 27.179-4.002 5.933-7.396 10.125-10.181 12.576-91.516 80.54-229.574 200.836-414.174 360.885-7.486 7.248-20.331 15.362-37.513 15.362s-28.438-6.893-37.403-15.362c-185.53-160.954-323.925-281.571-415.184-361.85-3.084-2.713-6.203-6.583-9.359-11.612z" />
<glyph unicode="&#xe928;" glyph-name="Chat" d="M744.687 378.624c12.139 103.509-20.608 209.28-98.837 288.363-20.203 20.416-42.56 37.76-66.283 52.587 34.645 31.211 78.293 48.469 124.288 48.491h0.021c49.707 0 96.832-19.947 132.672-56.149 45.589-46.037 59.776-96.171 59.456-335.979-61.781-0.149-110.997 0.469-151.317 2.688zM559.45 229.909c-62.912-63.573-116.565-81.728-431.445-80.491-0.981 315.968 17.109 378.155 80.853 442.56 48.32 48.811 112.469 75.669 180.651 75.669h0.043c68.139 0 132.267-26.88 180.523-75.669 97.493-98.517 92.8-257.536-10.624-362.069zM912.26 786.923c-56 56.597-129.984 87.744-208.384 87.744h-0.043c-78.379-0.021-152.384-31.168-208.277-87.68-4.715-4.757-12.373-12.416-22.763-22.805-27.008 6.4-54.805 10.069-83.243 10.069h-0.043c-96.832 0-187.904-38.101-256.384-107.264-101.696-102.699-114.475-207.787-111.403-570.987l0.448-52.331 52.352-0.512c33.707-0.299 65.152-0.491 94.507-0.491 280.427 0 372.501 17.579 466.155 112.256 35.307 35.669 62.144 76.032 80.768 118.635 41.387-3.136 91.115-4.267 154.56-4.267 24.235 0 50.496 0.149 79.019 0.427l52.352 0.469 0.427 52.373c2.347 274.304-4.501 377.984-90.048 464.363z" />
<glyph unicode="&#xe929;" glyph-name="Checkmark" d="M347.051 106.667c-14.144 0-27.712 5.697-37.717 15.796l-245.333 248.154 75.435 76.302 207.019-209.42 537 551.836 76.629-75.050-574.739-591.195c-9.92-10.401-23.573-16.292-37.867-16.421h-0.427z" />
<glyph unicode="&#xe92a;" glyph-name="Checkmark-Circle" d="M512 938.667c270.571 0 490.667-220.117 490.667-490.667 0-270.571-220.096-490.667-490.667-490.667-270.549 0-490.667 220.096-490.667 490.667 0 270.549 220.117 490.667 490.667 490.667zM512 832c-211.733 0-384-172.267-384-384s172.267-384 384-384c211.733 0 384 172.267 384 384s-172.267 384-384 384zM719.019 661.099l76.629-74.197-330.688-341.333c-9.92-10.283-23.573-16.107-37.867-16.235h-0.427c-14.144 0-27.712 5.632-37.717 15.616l-160 160 75.435 75.435 121.685-121.707 292.949 302.421z" />
<glyph unicode="&#xe92b;" glyph-name="Checkmark-Circle-Filled" d="M464.781 250.709c-9.92-10.155-23.531-15.915-37.781-16.043h-0.427c-14.101 0-27.648 5.568-37.632 15.445l-159.616 158.101 75.243 74.539 121.408-120.256 292.245 298.837 76.437-73.323-329.877-337.301zM511.991 938.667c-270.976 0-490.667-219.669-490.667-490.667 0-270.976 219.691-490.667 490.667-490.667 270.997 0 490.667 219.691 490.667 490.667 0 270.997-219.669 490.667-490.667 490.667v0z" />
<glyph unicode="&#xe92c;" glyph-name="Clipboard" d="M224 64c-17.643 0-32 14.357-32 32 0 256.156 0 451.712 0 586.667 0 29.066 10.643 42.667 42.667 42.667 0 0 7.111 0 21.333 0v-106.667h512v106.667c14.222 0 21.333 0 21.333 0 31.674 0 42.667-12.015 42.667-42.667 0-134.989 0-330.544 0-586.667 0-17.643-14.357-32-32-32h-576zM224 832c-76.459 0-138.667-62.208-138.667-138.667v-597.333c0-76.459 62.208-138.667 138.667-138.667h576c76.459 0 138.667 62.208 138.667 138.667v597.333c0 76.459-62.208 138.667-138.667 138.667h-138.667v106.667h-298.667v-106.667h298.667v-106.667h-298.667v106.667h-138.667z" />
<glyph unicode="&#xe92d;" glyph-name="Clock" d="M512 938.667c270.571 0 490.667-220.117 490.667-490.667 0-270.571-220.096-490.667-490.667-490.667-270.549 0-490.667 220.096-490.667 490.667 0 270.549 220.117 490.667 490.667 490.667zM512 832c-211.733 0-384-172.267-384-384s172.267-384 384-384c211.733 0 384 172.267 384 384s-172.267 384-384 384zM554.669 725.325v-246.656l138.496-81.493-54.165-91.925-190.997 112.448v307.627h106.667z" />
<glyph unicode="&#xe92e;" glyph-name="Close" d="M926.485 938.667l-414.464-414.464-414.485 414.464-76.203-76.181 414.485-414.485-414.485-414.485 76.203-76.181 414.485 414.464 414.464-414.464 76.181 76.181-414.464 414.485 414.464 414.485z" />
<glyph unicode="&#xe92f;" glyph-name="Close-small" d="M712.533 725.333l-200.533-200.555-200.533 200.555-76.8-76.8 200.533-200.555-200.533-200.512 76.8-76.8 200.533 200.533 200.533-200.533 76.8 76.8-200.555 200.512 200.555 200.555z" />
<glyph unicode="&#xe930;" glyph-name="Compare" d="M364.117 512l238.784-239.253c10.517-10.517 15.765-24.299 15.765-38.080s-5.248-27.563-15.765-38.080l-238.784-239.253-76.117 76.181 147.499 147.819h-414.165v106.667h414.165l-147.499 147.819 76.117 76.181zM659.883 938.667l76.117-76.181-147.52-147.819h414.187v-106.667h-414.165l147.499-147.819-76.117-76.181-238.784 239.253c-10.517 10.517-15.765 24.299-15.765 38.080s5.248 27.563 15.765 38.080v0l238.784 239.253z" />
<glyph unicode="&#xe931;" glyph-name="Copy" d="M842.667 661.333c52.928 0 96-43.072 96-96v-512c0-52.928-43.072-96-96-96h-362.667c-52.928 0-96 43.072-96 96v512c0 52.928 43.072 96 96 96h362.667zM832 554.667h-341.333v-490.667h341.333v490.667zM565.333 938.667c41.173 0 74.667-33.493 74.667-74.667v-96h-106.667v64h-341.333v-533.333h85.333v-106.667h-117.333c-41.173 0-74.667 33.493-74.667 74.667v597.333c0 41.173 33.493 74.667 74.667 74.667h405.333z" />
<glyph unicode="&#xe932;" glyph-name="Delete" d="M629.333 938.667c76.459 0 138.667-62.208 138.667-138.667l-0.021-31.979 192.021-0.021v-106.667h-85.333v-565.333c0-76.459-62.208-138.667-138.667-138.667h-448c-76.459 0-138.667 62.208-138.667 138.667v565.333h-85.333v106.667l191.979 0.021 0.021 31.979c0 76.459 62.208 138.667 138.667 138.667h234.667zM768 661.333h-512v-565.333c0-17.643 14.357-32 32-32h448c17.344 0 32 14.656 32 32v565.333zM469.333 533.333v-341.333h-106.667v341.333h106.667zM661.333 533.333v-341.333h-106.667v341.333h106.667zM629.333 832h-234.667c-17.643 0-32-14.357-32-32l-0.021-31.979h298.667l0.021 31.979c0 17.643-14.357 32-32 32z" />
<glyph unicode="&#xe933;" glyph-name="Documents" d="M170.667 64h448v384h-277.333v277.333h-170.667v-661.333zM448 725.333v-170.667h170.667l-170.667 170.667zM725.333 938.667l234.667-234.667v-565.333c0-45.993-37.658-74.671-74.667-74.671v0l-160.004 0.005 0.005-32.055c0-45.875-37.113-72.787-71.158-74.53l-3.509-0.090h-512c-48.51 0.704-74.671 40.663-74.671 74.62v0 725.388c0 51.923 42.671 74.667 74.671 74.667v0h206.385c0.653 20.596 0.979 30.894 0.979 30.894 0 43.772 26.48 75.773 80.711 75.773v0h298.591zM725.334 597.333l-0.005-426.667h128.004v490.667l-170.667 170.667h-192l234.668-234.667z" />
<glyph unicode="&#xe934;" glyph-name="Download" d="M128 320v-224c0-17.643 14.357-32 32-32h704c17.643 0 32 14.357 32 32v224h106.667v-224c0-76.459-62.208-138.667-138.667-138.667h-704c-76.459 0-138.667 62.208-138.667 138.667v224h106.667zM565.376 938.667v-589.269l197.867 190.357 74.091-76.843-288.299-277.333c-10.347-9.941-23.701-14.912-37.035-14.912-13.355 0-26.709 4.971-37.035 14.912l-288.299 277.333 74.048 76.843 197.888-190.357v589.269h106.773z" />
<glyph unicode="&#xe935;" glyph-name="Download-Circle-Filled" d="M512 938.667c270.571 0 490.667-220.117 490.667-490.667 0-270.571-220.096-490.667-490.667-490.667-270.549 0-490.667 220.096-490.667 490.667 0 270.549 220.117 490.667 490.667 490.667zM570.709 853.333h-106.773v-333.269l-112.555 105.024-74.048-76.843 202.965-192c10.325-9.941 23.68-14.912 37.035-14.912 13.333 0 26.688 4.971 37.035 14.912v0l202.965 192-74.091 76.843-112.533-105.024v333.269zM288 149.333c-76.459 0-138.667 62.208-138.667 138.667v74.667h106.667v-74.667c0-17.643 14.357-32 32-32h448c17.643 0 32 14.357 32 32v74.667h106.667v-74.667c0-76.459-62.208-138.667-138.667-138.667h-448z" />
<glyph unicode="&#xe936;" glyph-name="Download-Folder" d="M565.376 554.667v-418.603l112.533 105.024 74.091-76.843-202.965-192c-10.347-9.941-23.701-14.912-37.035-14.912-13.355 0-26.709 4.971-37.035 14.912l-202.965 192 74.048 76.843 112.555-105.024v418.603h106.773zM335.296 938.667l170.667-106.667h358.037c76.459 0 138.667-62.208 138.667-138.667v-341.333c0-76.459-62.208-138.667-138.667-138.667h-53.248v106.667h53.248c17.643 0 32 14.357 32 32v341.333c0 17.643-14.357 32-32 32h-388.629l-170.667 106.667h-144.704c-17.643 0-32-14.357-32-32v-448c0-17.643 14.357-32 32-32h53.333v-106.667h-53.333c-76.459 0-138.667 62.208-138.667 138.667v448c0 76.459 62.208 138.667 138.667 138.667h175.296z" />
<glyph unicode="&#xe937;" glyph-name="Enlarge" d="M128 341.333v-245.333c0-17.643 14.357-32 32-32v0h245.333v-106.667h-245.333c-76.459 0-138.667 62.208-138.667 138.667v0 245.333h106.667zM1002.667 341.333v-245.333c0-76.459-62.208-138.667-138.667-138.667h-245.333v106.667h245.333c17.643 0 32 14.357 32 32v245.333h106.667zM405.333 938.667v-106.667h-245.333c-17.643 0-32-14.357-32-32v-245.333h-106.667v245.333c0 76.459 62.208 138.667 138.667 138.667h245.333zM864 938.667c76.459 0 138.667-62.208 138.667-138.667v0-245.333h-106.667v245.333c0 17.643-14.357 32-32 32v0h-245.333v106.667z" />
<glyph unicode="&#xe938;" glyph-name="Enter" d="M85.335 501.382l256.384-0.007-43.054 223.959v138.667c0 38.211 30.645 74.673 74.673 74.673h490.667c44.751 0 74.67-36.275 74.67-74.673v-832c0-44.277-36.583-74.669-74.67-74.669h-490.667c-42.608 0-74.66 35.541-74.66 73.216l-0.008 43.019c0 1.353-0.001 2.681-0.001 3.971l-0.004 93.129h106.673l-43.074 223.934-276.928 0.007v106.773zM298.67 725.404l43.070-224.029 204.864 0.007-105.024 112.533 76.843 74.091 192-202.965c9.941-10.347 14.912-23.701 14.912-37.035 0-13.355-4.971-26.709-14.912-37.035l-192-202.965-76.843 74.048 105.024 112.555-184.32-0.007 43.053-223.934v-106.667h426.667v768h-426.667v-106.667l-106.667 0.069z" />
<glyph unicode="&#xe939;" glyph-name="Equalizer" d="M341.333 298.65v-277.333h-106.667v85.333h-213.333v106.667h213.333v85.333h106.667zM1002.669 213.325v-106.667h-554.667v106.667h554.667zM789.327 597.325v-85.333h213.333v-106.667h-213.333v-85.333h-106.667v277.333h106.667zM576.002 511.991v-106.667h-554.667v106.667h554.667zM341.333 896v-277.355h-106.667v85.355h-213.333v106.667h213.333v85.333h106.667zM1002.669 810.637v-106.645h-554.667v106.645h554.667z" />
<glyph unicode="&#xe93a;" glyph-name="Exit" d="M21.332 864.007c0 44.277 36.583 74.669 74.67 74.669h490.667c42.608 0 74.66-35.541 74.66-73.216l0.003-14.404c0-1.198 0-2.444 0.001-3.728l0.009-121.987h-106.673l43.068-223.964 226.201 0.007-105.024 112.533 76.843 74.091 192-202.965c9.941-10.347 14.912-23.701 14.912-37.035 0-13.355-4.971-26.709-14.912-37.035l-192-202.965-76.843 74.048 105.024 112.555h-461.269v106.773l235.068-0.007-43.068 223.964v106.667h-426.667v-768h426.667v106.667l106.667-0.069 0.006-138.597c0-38.211-30.645-74.673-74.673-74.673h-490.667c-44.751 0-74.67 36.275-74.67 74.673v832z" />
<glyph unicode="&#xe93b;" glyph-name="Expand-Arrow" d="M613.717 858.667l373.333-372.992c10.411-10.411 15.616-24.043 15.616-37.675s-5.205-27.264-15.616-37.675l-373.333-372.992-75.435 75.349 282.304 282.027h-308.587v106.581h308.587l-282.304 282.027 75.435 75.349zM128 501.291v-106.581h-106.667v106.581h106.667zM405.333 501.291v-106.581h-170.667v106.581h170.667z" />
<glyph unicode="&#xe93c;" glyph-name="Fax" d="M896 938.667v-256h106.667v-554.667h-192v-170.667h-405.333v170.667h-245.333c-76.459 0-138.667 62.208-138.667 138.667v0 277.333c0 76.459 62.208 138.667 138.667 138.667v0h138.667v256h597.333zM704 320h-192v-256h192v256zM896 576h-736c-17.643 0-32-14.357-32-32v0-277.333c0-17.643 14.357-32 32-32v0h245.333v192h405.333v-192h85.333v341.333zM320 512v-213.333h-106.667v213.333h106.667zM789.333 832h-384v-149.333h384v149.333z" />
<glyph unicode="&#xe93d;" glyph-name="Feedback" d="M859.77 795.279c92.139-92.096 142.869-215.275 142.891-346.837 0-131.584-50.752-254.763-142.891-346.816-121.301-121.195-249.451-144.299-642.581-144.299-44.011 0-91.307 0.299-142.336 0.768l-52.373 0.491-0.469 52.352c-0.35 40.544-0.585 78.76-0.653 114.832l-0.003 39.685c0.722 383.681 24.602 510.284 144.294 629.824 191.424 191.189 502.784 191.189 694.123 0zM241.060 719.887c-90.609-90.51-112.635-179.692-113.027-563.737l0.004-25.189c0.028-21.337 0.115-43.544 0.255-66.669 27.74-0.188 54.161-0.3 79.343-0.322l24.771 0.008c373.58 0.592 461.96 23.149 551.929 113.039 72.021 71.915 111.659 168.32 111.659 271.424 0 103.083-39.659 199.488-111.659 271.467-149.739 149.632-393.429 149.611-543.275-0.021zM597.333 362.667v-106.667h-298.667v106.667h298.667zM725.333 597.333v-106.667h-426.667v106.667h426.667z" />
<glyph unicode="&#xe93e;" glyph-name="Filter" d="M352 448c75.477 0 139.541-49.301 162.027-117.333v0h488.64v-106.667h-488.64c-22.485-68.032-86.549-117.333-162.027-117.333s-139.563 49.301-162.005 117.333v0h-168.661v106.667h168.661c22.443 68.032 86.528 117.333 162.005 117.333zM352 341.333c-35.285 0-64-28.715-64-64s28.715-64 64-64c35.285 0 64 28.715 64 64s-28.715 64-64 64zM650.667 789.333c75.456 0 139.541-49.301 162.027-117.333v0h189.973v-106.667h-189.973c-22.485-68.032-86.571-117.333-162.027-117.333s-139.541 49.301-162.027 117.333v0h-467.307v106.667h467.307c22.485 68.032 86.571 117.333 162.027 117.333zM650.667 682.667c-35.285 0-64-28.715-64-64s28.715-64 64-64c35.285 0 64 28.715 64 64s-28.715 64-64 64z" />
<glyph unicode="&#xe93f;" glyph-name="Flag" d="M194.268 411.636c66.207 10.226 133.898 2.214 196.028-23.203 28.491-12.736 55.205-29.244 79.447-49.096 26.981-22.029 56.602-40.484 88.152-54.924 48.522-20.798 100.734-31.215 153.384-30.601 59.382 0.709 118.326 10.457 174.871 28.919l31.184 9.752v526.825l-56.968-17.822c-104.791-32.73-194.485-33.627-266.549-1.681-25.363 11.817-49.136 26.885-70.742 44.836-29.878 24.166-62.737 44.251-97.738 59.744-83.854 36.205-179.169 43.827-283.188 22.418l-56.814-20.136v-949.333h109.485l-0.551 454.302zM390.295 799.993c28.491-12.736 55.205-29.244 79.447-49.096 26.98-22.030 56.601-40.485 88.152-54.924 72.72-31.703 157.843-38.704 252.773-20.45 0 0 0-298.748 0-298.748-84.263-19.050-157.159-15.203-217.842 11.358-25.363 11.816-49.137 26.884-70.742 44.836-29.88 24.164-62.738 44.249-97.738 59.744-54.606 23.206-113.269 34.913-172.447 34.412-19.4-0.015-40.612-1.1-59.897-3.251v299.545c66.217 10.191 136.176 2.028 198.295-23.427z" />
<glyph unicode="&#xe940;" glyph-name="Folder" d="M160 704c-17.643 0-32-14.357-32-32v-448c0-17.643 14.357-32 32-32h704c17.643 0 32 14.357 32 32v341.333c0 17.643-14.357 32-32 32h-388.629l-170.667 106.667h-144.704zM864 85.333h-704c-76.459 0-138.667 62.208-138.667 138.667v448c0 76.459 62.208 138.667 138.667 138.667h175.296l170.667-106.667h358.037c76.459 0 138.667-62.208 138.667-138.667v-341.333c0-76.459-62.208-138.667-138.667-138.667v0z" />
<glyph unicode="&#xe941;" glyph-name="Formulare-Anfrage" d="M447.996 169.858v-212.523h212.544l342.123 342.059-212.437 212.608-342.229-342.144zM555.366 125.421l234.795 234.752 60.693-60.736-234.752-234.773h-60.736v60.757zM341.333-42.667h-181.333c-76.459 0-138.667 62.208-138.667 138.667v704c0 76.459 62.208 138.667 138.667 138.667h512c76.459 0 138.667-62.208 138.667-138.667v-202.667h-106.667v202.667c0 17.643-14.357 32-32 32h-512c-17.643 0-32-14.357-32-32v-704c0-17.643 14.357-32 32-32h181.333v-106.667z" />
<glyph unicode="&#xe942;" glyph-name="Forward" d="M492.105 938.667l452.117-452.587c21.035-21.035 21.035-55.125 0-76.16l-452.117-452.587-76.096 76.181 414.059 414.485-414.059 414.485 76.096 76.181zM140.115 938.667l452.117-452.587c21.013-21.035 21.013-55.125 0-76.16l-452.117-452.587-76.117 76.181 414.059 414.485-414.059 414.485 76.117 76.181z" />
<glyph unicode="&#xe943;" glyph-name="Gear-Settings" d="M372.761 928.048l300.611-0.301v-170.64l37.633-21.146 146.118 87.487 154.672-257.735-146.38-87.763c1.783-23.396 1.783-43.746 0-61.052 0 0 48.624-29.358 145.871-88.074l-154.821-257.592-145.99 87.781c-21.359-13.001-33.903-20.006-37.635-21.016v-170.763h-300.84v170.763c-18.579 9.638-31.116 16.815-37.612 21.53 0 0-48.72-29.22-146.16-87.66l-154.625 257.781 146.268 87.855c-1.85 21.715-1.85 42.127 0 61.235 0 0-48.756 29.272-146.268 87.815l155.32 257.577 146.158-87.71c11.758 7.46 24.317 14.505 37.678 21.134v170.493zM566.706 821.428h-87.559v-138.166c-80.46-21.554-115.084-58.058-136.784-76.094 0 0-36.838 22.177-110.515 66.53l-6.596 3.971-45.83-75.342 117.799-70.487c-16.628-60.745-16.628-116.58 0-167.504l-3.462-2.085c-10.77-6.486-46.671-28.108-107.702-64.864l-6.635-3.996 44.933-76.278 118.008 70.905c38.451-36.46 81.102-61.22 127.951-74.278l8.833-2.311-0.014-1.79c-0.069-8.951-0.396-51.467-0.98-127.549l-0.059-7.72h87.779c0.429 70.487 0.693 113.787 0.791 129.898l0.019 3.133 0.004 0.643 0.014 2.378c0.001 0.224 0.002 0.41 0.003 0.559l0.003 0.448c40.262 6.34 83.376 29.799 129.34 70.375l6.916 6.215 117.729-70.905 44.686 75.171c-78.361 47.382-117.542 71.073-117.542 71.073 15.728 53.232 16.556 106.439 2.483 159.621l-2.483 8.863 117.542 70.487-44.686 75.342c-20.182-12.086-37.769-22.618-52.762-31.596l-9.611-5.755c-10.251-6.139-19.079-11.425-26.482-15.859l-10.038-6.011c-2.691-1.611-5.094-3.050-7.208-4.316l-3.844-2.302c-5.19-3.108-7.785-4.662-7.785-4.662-34.693 34.229-76.966 58.951-126.82 74.166l-9.436 2.741v137.353zM522.667 597.333c82.475 0 149.333-66.859 149.333-149.333s-66.859-149.333-149.333-149.333c-82.475 0-149.333 66.859-149.333 149.333s66.859 149.333 149.333 149.333zM522.667 490.667c-23.564 0-42.667-19.103-42.667-42.667s19.103-42.667 42.667-42.667c23.564 0 42.667 19.103 42.667 42.667s-19.103 42.667-42.667 42.667z" />
<glyph unicode="&#xe944;" glyph-name="Globe" d="M512 938.667l8.114-0.066c264.582-4.289 478.241-217.975 482.488-482.568l0.064-8.033-0.066-8.114c-4.289-264.562-217.975-478.241-482.568-482.489l-8.033-0.064-8.114 0.066c-267.234 4.333-482.553 222.335-482.553 490.601 0 270.997 219.691 490.667 490.667 490.667zM591.042 277.313l-157.83 0.010c13.799-70.154 35.697-141.112 65.695-213.105 2.021-0.067 4.028-0.118 6.039-0.154l7.054-0.063 7.054 0.063 6.321 0.177c29.984 71.983 51.873 142.93 65.667 213.073zM325.407 277.321l-157.486 0.002c42.738-85.992 116.764-153.691 207.181-188.203-22.251 63.032-38.821 125.781-49.695 188.2zM856.075 277.317l-157.231 0.011c-10.869-62.394-27.429-125.117-49.681-188.105 90.294 34.541 164.215 102.19 206.912 188.094zM312.909 533.323l-175.393 0.011c-6.228-27.445-9.516-56.006-9.516-85.334 0-21.819 1.82-43.213 5.316-64.038l179.032 0.007c-3.521 50.036-3.334 99.832 0.561 149.354zM605.167 533.33l-186.083-0.012c-4.442-49.481-4.661-99.234-0.657-149.343l187.399-0.006c4.004 50.116 3.784 99.874-0.658 149.362zM886.487 533.323l-175.144 0.006c3.895-49.527 4.081-99.328 0.559-149.369l178.785 0.014c3.113 18.547 4.896 37.544 5.249 56.892l0.065 7.134-0.063 7.054c-0.484 26.853-3.724 53.033-9.45 78.269zM372.93 806.046l-2.56-1.010c-80.704-32.041-147.969-90.654-190.999-165.040l147.742-0.011c10.492 55.756 25.764 111.127 45.816 166.061zM512 832l-7.054-0.063-6.73-0.175c-28.19-63.701-49.169-127.563-62.934-191.78l153.686 0.016c-13.762 64.204-34.732 128.053-62.91 191.741-4.688 0.178-9.363 0.262-14.057 0.262zM651.361 805.929l1.285-3.511c19.402-53.743 34.234-107.902 44.493-162.43l147.489 0.008c-43.432 75.082-111.556 134.095-193.268 165.933z" />
<glyph unicode="&#xe945;" glyph-name="GooglePlus" d="M541.208 670.060c-25.15-28.362-51.192-55.681-79.015-81.232-70.837 48.585-171.576 62.471-242.413 6.359-101.334-69.567-105.948-233.799-8.475-308.672 94.789-85.369 273.95-42.974 300.139 87.727l-35.639 0.355-71.331 0.314c-23.779 0.163-47.552 0.481-71.3 1.247-0.149 35.152-0.297 70.304-0.149 105.456 99.254 0.284 198.509 0.432 297.912-0.305 5.951-82.706-5.060-170.728-56.252-239.105-77.53-108.246-233.174-139.861-354.609-93.486-121.87 46.080-208.183 173.834-197.915 304.093 2.684 159.358 150.298 298.924 310.864 293.597 76.936 3.548 149.248-29.678 208.183-76.347zM913.076 570.373c0.149-29.393 0.308-58.934 0.594-88.327 29.616-0.284 59.381-0.284 88.997-0.59v-87.864c-29.616-0.305-59.232-0.453-88.997-0.747-0.286-29.53-0.446-58.924-0.594-88.317h-88.689c-0.297 29.393-0.297 58.787-0.594 88.17-29.616 0.295-59.37 0.59-88.986 0.895v87.864c29.616 0.305 59.232 0.442 88.986 0.59 0.149 29.541 0.446 58.934 0.753 88.327h88.53z" />
<glyph unicode="&#xe946;" glyph-name="Grid" d="M906.667 405.333c52.928 0 96-43.072 96-96v-256c0-52.928-43.072-96-96-96h-256c-52.928 0-96 43.072-96 96v256c0 52.928 43.072 96 96 96h256zM373.333 405.333c52.928 0 96-43.072 96-96v-256c0-52.928-43.072-96-96-96h-256c-52.928 0-96 43.072-96 96v256c0 52.928 43.072 96 96 96h256zM896 298.667h-234.667v-234.667h234.667v234.667zM362.667 298.667h-234.667v-234.667h234.667v234.667zM906.667 938.667c52.928 0 96-43.072 96-96v-256c0-52.928-43.072-96-96-96h-256c-52.928 0-96 43.072-96 96v256c0 52.928 43.072 96 96 96h256zM373.333 938.667c52.928 0 96-43.072 96-96v-256c0-52.928-43.072-96-96-96h-256c-52.928 0-96 43.072-96 96v256c0 52.928 43.072 96 96 96h256zM896 832h-234.667v-234.667h234.667v234.667zM362.667 832h-234.667v-234.667h234.667v234.667z" />
<glyph unicode="&#xe947;" glyph-name="Headphones" d="M896 117.333c0-17.643-14.357-32-32-32h-64c-17.344 0-32 14.656-32 32v149.333c0 17.344 14.656 32 32 32h96v-181.333zM256 266.667v-149.333c0-17.344-14.656-32-32-32h-64c-17.643 0-32 14.357-32 32v181.333h96c17.344 0 32-14.656 32-32v0zM512.064 917.333c-275.179 0-490.731-184.043-490.731-419.008v-380.992c0-76.459 62.208-138.667 138.667-138.667h64c76.459 0 138.667 62.208 138.667 138.667v149.333c0 76.459-62.208 138.667-138.667 138.667h-96v92.992c0 172.224 172.288 312.341 384.064 312.341 211.712 0 383.936-140.117 383.936-312.341v-92.992h-96c-76.459 0-138.667-62.208-138.667-138.667v-149.333c0-76.459 62.208-138.667 138.667-138.667h64c76.459 0 138.667 62.208 138.667 138.667v380.992c0 234.965-215.509 419.008-490.603 419.008v0z" />
<glyph unicode="&#xe948;" glyph-name="Heart" d="M91.776 452.113c-45.419 46.582-70.443 108.772-70.443 175.117 0 66.367 25.024 128.556 70.443 175.139 45.483 46.604 106.261 72.298 171.136 72.298s125.696-25.737 171.264-72.45l77.675-79.636 77.824 79.788c45.461 46.604 106.24 72.298 171.115 72.298 64.853 0 125.653-25.694 171.157-72.298 94.229-96.607 94.229-253.801 0-350.364l-420.096-430.671-420.075 430.779z" />
<glyph unicode="&#xe949;" glyph-name="Heart-Light" d="M760.789 874.667l7.465-0.114c62.045-1.893 119.96-27.365 163.714-72.206v0l4.79-5.049c89.411-96.931 87.815-250.419-4.79-345.309v0l-420.096-430.677-425.227 436.245c-42.176 45.899-65.312 105.849-65.312 169.664v0l0.111 7.636c1.844 63.471 26.661 122.689 70.353 167.489v0l5.315 5.288c44.847 43.285 103.42 67.032 165.8 67.032v0l7.467-0.114c62.065-1.896 120.002-27.412 163.797-72.355v0l77.696-79.637 77.803 79.787c45.483 46.635 106.24 72.32 171.115 72.32v0zM760.794 767.981c-35.883 0-69.525-14.251-94.763-40.107l-154.197-158.080-154.027 157.931c-25.28 25.963-58.987 40.256-94.891 40.256-35.883 0-69.547-14.251-94.784-40.128-25.856-26.517-40.128-62.293-40.128-100.651 0-38.336 14.251-74.069 40.149-100.608l343.723-352.512 343.723 352.405c54.187 55.509 54.165 145.856 0 201.387-25.237 25.856-58.901 40.107-94.805 40.107z" />
<glyph unicode="&#xe94a;" glyph-name="Home" d="M746.667 617.51v-457.609c0-17.144-11.985-32-32-32 0 0-405.333 0-405.333 0-16.622 0-32 14.125-32 32 0 0 0 152.868 0 458.604l234.667 146.558 234.667-147.553zM106.667 637.853l-85.333-53.523 56.263-90.458 93.070 57.906v-391.876c0-76.459 62.208-138.667 138.667-138.667h405.333c76.459 0 138.667 62.208 138.667 138.667v391.876l93.132-58.187 56.159 90.191-445.533 277.951c-27.602 17.22-62.595 17.247-90.224 0.069l-360.2-223.949z" />
<glyph unicode="&#xe94b;" glyph-name="Image" d="M864 64h-704c-17.643 0-32 14.357-32 32v152.149l189.376 189.952 239.573-240.533 152.512 152.981 186.539-186.987v-67.563c0-17.643-14.357-32-32-32zM160 832h704c17.643 0 32-14.357 32-32v-485.44l-186.581 187.029-152.427-152.896-239.595 240.533-189.397-189.995v400.768c0 17.643 14.357 32 32 32zM864 938.667h-704c-76.459 0-138.667-62.208-138.667-138.667v-704c0-76.459 62.208-138.667 138.667-138.667h704c76.459 0 138.667 62.208 138.667 138.667v704c0 76.459-62.208 138.667-138.667 138.667zM586.667 554.667c53.013 0 96 42.987 96 96s-42.987 96-96 96c-53.013 0-96-42.987-96-96s42.987-96 96-96z" />
<glyph unicode="&#xe94c;" glyph-name="Images" d="M874.709 938.667c71.744 0 127.957-56.213 127.957-127.979v-533.248c0-79.125-66.411-128.107-127.957-128.107h-64.043v-64l-0.088-4.799c-2.523-68.476-58.82-123.222-127.912-123.222v0l-538.132 0.088c-68.475 2.524-123.201 58.841-123.201 127.933v0 533.333l0.088 4.799c2.523 68.475 58.82 123.201 127.912 123.201v0h64v64.021c0 71.765 56.235 127.979 128 127.979h533.376zM255.266 323.539l-127.266-127.699v-110.507c0-11.776 9.557-21.333 21.333-21.333h533.333c11.776 0 21.333 9.557 21.333 21.333v71.083l-85.15 83.561-150.976-109.184-212.608 192.747zM874.709 832h-533.376c-13.163 0-21.333-8.171-21.333-21.312v-64.021l367.466-0.088c68.475-2.523 123.201-58.82 123.201-127.912v0-362.667h64.043c4.224 0 21.291 3.819 21.291 21.44v533.248c0 13.141-8.171 21.312-21.291 21.312zM682.667 640h-533.333c-11.776 0-21.333-9.557-21.333-21.333v-271.701l123.511 123.945 223.936-202.987 153.856 111.275 74.697-73.321v312.789c0 11.776-9.557 21.333-21.333 21.333zM501.333 554.667l4.097-0.111c39.333-2.128 70.591-34.714 70.591-74.556v0l-0.111-4.097c-2.128-39.332-34.715-70.57-74.577-70.57v0l-4.097 0.11c-39.332 2.127-70.57 34.693-70.57 74.556 0 41.216 33.429 74.667 74.667 74.667v0z" />
<glyph unicode="&#xe94d;" glyph-name="Info" d="M512 832c-211.733 0-384-172.267-384-384s172.267-384 384-384c211.733 0 384 172.267 384 384s-172.267 384-384 384zM512-42.667c-270.549 0-490.667 220.096-490.667 490.667 0 270.549 220.117 490.667 490.667 490.667 270.571 0 490.667-220.117 490.667-490.667 0-270.571-220.096-490.667-490.667-490.667zM458.667 149.333h106.667v426.667h-106.667zM576 704c0-35.349-28.651-64-64-64s-64 28.651-64 64c0 35.349 28.651 64 64 64s64-28.651 64-64z" />
<glyph unicode="&#xe94e;" glyph-name="Info-Circle-Filled" d="M512 938.667c270.571 0 490.667-220.117 490.667-490.667 0-270.571-220.096-490.667-490.667-490.667-270.549 0-490.667 220.096-490.667 490.667 0 270.549 220.117 490.667 490.667 490.667zM565.333 576h-106.667v-426.667h106.667v426.667zM512 768c-35.349 0-64-28.651-64-64s28.651-64 64-64c35.349 0 64 28.651 64 64s-28.651 64-64 64z" />
<glyph unicode="&#xe94f;" glyph-name="Keyword" d="M682.667 896c164.949 0 298.667-133.699 298.667-298.626s-133.718-298.626-298.667-298.626c-61.403 0-118.478 18.527-165.938 50.295v0l-1.192-1.196c-0.159-0.159-0.334-0.335-0.525-0.526l-7.631-7.652c-0.445-0.446-0.906-0.909-1.383-1.387l-6.486-6.505c-0.604-0.606-1.224-1.228-1.86-1.865l-4.006-4.018c-0.699-0.701-1.415-1.419-2.146-2.152l-4.578-4.591c-2.385-2.391-4.912-4.926-7.583-7.605l-5.532-5.548c-2.861-2.87-5.866-5.883-9.014-9.039l-6.486-6.505c-1.113-1.116-2.241-2.248-3.386-3.396l-7.058-7.078c-4.833-4.847-9.92-9.948-15.261-15.305l-8.203-8.226c-61.553-61.73-153.882-154.324-276.988-277.783v0l-75.246 75.414 84.522 84.72-135.354 135.715 75.246 75.414 135.327-135.704 63.051 63.185-100.981 101.101 75.448 75.481 100.817-101.139 9.324 9.328c13.486 13.492 24.725 24.735 33.715 33.73l12.903 12.909c3.607 3.609 6.521 6.524 8.741 8.745l3.996 3.998c0.888 0.888 1.332 1.333 1.332 1.333-35.398 49.081-56.253 109.344-56.253 174.478 0 164.926 133.718 298.626 298.667 298.626zM682.667 789.333c-106.039 0-192-85.961-192-192s85.961-192 192-192c106.039 0 192 85.961 192 192s-85.961 192-192 192z" />
<glyph unicode="&#xe950;" glyph-name="Kundencenter" d="M789.333 266.667v128c0 17.643 14.357 32 32 32h74.581v-160c0-17.643-14.357-32-32-32h-42.581c-17.643 0-32 14.357-32 32zM234.581 394.667v-128c0-17.643-14.357-32-32-32h-42.581c-17.643 0-32 14.357-32 32v10.667h0.021v149.333h74.56c17.643 0 32-14.357 32-32zM1002.155 258.048c0.064 2.901 0.512 5.653 0.512 8.619h-0.085v266.667h-0.32c-6.464 228.139-219.392 405.333-490.219 405.333-270.933 0-483.904-177.195-490.368-405.333h-0.341v-266.667c0-76.459 62.208-138.667 138.667-138.667h42.581c76.459 0 138.667 62.208 138.667 138.667v128c0 76.459-62.208 138.667-138.667 138.667h-73.877c7.061 165.611 176.064 298.667 383.339 298.667 207.211 0 376.149-133.056 383.211-298.667h-73.92c-76.459 0-138.667-62.208-138.667-138.667v-128c0-74.155 58.539-134.699 131.819-138.304-45.141-29.461-114.688-53.312-221.099-61.376-10.517 35.2-42.752 61.013-81.387 61.013-47.125 0-85.333-38.208-85.333-85.333s38.208-85.333 85.333-85.333c299.243 0 480.512 109.931 489.771 294.613 0.235 1.984 0.256 4.053 0.384 6.101z" />
<glyph unicode="&#xe951;" glyph-name="List" d="M149.333 245.333c35.349 0 64-28.651 64-64s-28.651-64-64-64c-35.349 0-64 28.651-64 64s28.651 64 64 64zM938.667 234.688v-106.667h-618.667v106.667h618.667zM149.333 522.667c35.349 0 64-28.651 64-64s-28.651-64-64-64c-35.349 0-64 28.651-64 64s28.651 64 64 64zM938.667 512.021v-106.667h-618.667v106.667h618.667zM149.333 800c35.349 0 64-28.651 64-64s-28.651-64-64-64c-35.349 0-64 28.651-64 64s28.651 64 64 64zM938.667 789.333v-106.645h-618.667v106.645h618.667z" />
<glyph unicode="&#xe952;" glyph-name="Load" d="M128 448h-106.667c0 270.571 220.096 490.667 490.667 490.667v-106.667c-211.733 0-384-172.267-384-384z" />
<glyph unicode="&#xe953;" glyph-name="Location" d="M512.149 938.667c104.875-0.021 208.533-42.603 284.437-116.8 77.824-76.096 120.725-178.603 120.747-288.576-0.107-69.483-13.888-121.515-47.573-179.776-56.427-97.664-168.533-210.645-320.725-359.595l-37.397-36.587-37.312 36.672c-293.312 288.32-367.744 378.987-367.659 539.563 0 70.571 18.923 140.587 54.656 202.432 73.344 126.912 204.373 202.667 350.528 202.667h0.299zM512.085 832h-0.213c-107.627 0-204.139-55.829-258.197-149.376-26.389-45.653-40.341-97.216-40.341-149.077-0.064-108.288 45.717-176.363 298.496-426.688 126.997 124.928 220.267 221.589 265.579 300.032 24.171 41.792 33.195 76.075 33.259 126.443-0.021 80.981-31.509 156.395-88.661 212.267-56.128 54.891-132.651 86.379-209.92 86.4zM511.998 725.333c105.877 0 192-86.144 192-192 0-105.877-86.123-192-192-192-105.856 0-192 86.123-192 192 0 105.856 86.144 192 192 192zM511.998 618.667c-47.061 0-85.333-38.272-85.333-85.333s38.272-85.333 85.333-85.333c47.061 0 85.333 38.272 85.333 85.333s-38.272 85.333-85.333 85.333z" />
<glyph unicode="&#xe954;" glyph-name="Lock" d="M768 704.972v-149.333h106.667v-501.333c0-52.928-43.072-96-96-96h-533.333c-52.928 0-96 43.072-96 96v501.333h106.996l-0.006 2.645c-0.001 0.572-0.003 1.23-0.004 1.97l-0.019 8.72c-0.061 28.347-0.201 94.316-0.262 122.663l-0.013 6.259c-0.002 0.898-0.004 1.72-0.005 2.46l-0.010 4.616c0 311.592 511.989 311.592 511.989 0zM768 448.972h-512v-384h512v384zM512.011 331.639c35.349 0 64-28.651 64-64s-28.651-64-64-64c-35.349 0-64 28.651-64 64s28.651 64 64 64zM661.344 694.306c0 184.808-298.667 184.808-298.667 0v0l0.009-7.282c0.001-0.921 0.002-1.92 0.004-2.99l0.014-11.395c0.002-1.444 0.004-2.942 0.006-4.488l0.019-15.033c0.002-1.777 0.004-3.584 0.007-5.415l0.014-11.223c0.002-1.902 0.005-3.816 0.007-5.736l0.014-11.544c0.002-1.92 0.005-3.834 0.007-5.736l0.014-11.223c0.002-1.831 0.005-3.638 0.007-5.415l0.013-10.26c0.002-1.635 0.004-3.228 0.006-4.773l0.016-12.465c0.002-1.207 0.003-2.348 0.004-3.418l0.013-10.272h298.493z" />
<glyph unicode="&#xe955;" glyph-name="Login" d="M923.563 345.773l36.437-20.117-10.581-40.149c-51.712-196.288-227.499-328.171-437.419-328.171s-385.707 131.883-437.44 328.171l-10.56 40.149 36.437 20.117c272.875 150.528 550.293 150.528 823.125 0zM512 352.429c-105.515 0-213.184-26.773-320.619-79.659 50.944-126.379 174.933-208.683 320.619-208.683s269.653 82.304 320.597 208.683c-107.435 52.885-215.104 79.659-320.597 79.659zM511.996 938.667c105.877 0 192-86.144 192-192s-86.123-192-192-192c-105.856 0-192 86.144-192 192s86.144 192 192 192zM511.996 832c-47.061 0-85.333-38.272-85.333-85.333s38.272-85.333 85.333-85.333c47.061 0 85.333 38.272 85.333 85.333s-38.272 85.333-85.333 85.333z" />
<glyph unicode="&#xe956;" glyph-name="Mail" d="M864 170.667h-704c-17.643 0-32 14.357-32 32v410.88l383.979-262.229 384.021 262.208v-410.859c0-17.643-14.357-32-32-32v0zM864 725.333c1.963 0 3.861-0.235 5.717-0.576l-357.739-244.288-357.675 244.288c1.856 0.341 3.755 0.576 5.696 0.576h704zM864 832h-704c-76.459 0-138.667-62.208-138.667-138.667v-490.667c0-76.459 62.208-138.667 138.667-138.667h704c76.459 0 138.667 62.208 138.667 138.667v490.667c0 76.459-62.208 138.667-138.667 138.667v0z" />
<glyph unicode="&#xe957;" glyph-name="Mailbox" d="M896 405.333h-64v-192h-640v192h-64v-309.333c0-17.643 14.357-32 32-32h704c17.643 0 32 14.357 32 32v309.333zM298.667 832v-512h426.667v512h-426.667zM160-42.667c-76.459 0-138.667 62.208-138.667 138.667v416h170.667v341.333c0 47.128 38.205 85.333 85.333 85.333h469.333c47.128 0 85.333-38.205 85.333-85.333v-341.333h170.667v-416c0-76.459-62.208-138.667-138.667-138.667h-704zM362.667 725.333v-106.667h277.333v106.667h-277.333zM362.667 533.333v-106.667h213.333v106.667h-213.333z" />
<glyph unicode="&#xe958;" glyph-name="Map" d="M896 256l-192-97.749v481.749l192 108.139v-492.139zM128 640l192 97.749v-482.411l-192-106.005v490.667zM426.667 734.741l170.667-94.741v-478.741l-170.667 94.741v478.741zM967.253 863.445c-22.144 13.696-49.323 14.955-72.64 3.243l-243.029-131.904-243.221 130.965c-21.376 11.499-47.104 11.925-68.8 1.024l-276.949-138.475c-25.472-12.736-41.28-38.315-41.28-66.795v-564.992c0-25.621 12.885-49.131 34.496-62.912 21.589-13.76 48.341-15.531 71.616-4.779l244.117 132.843 244.032-131.392c11.029-5.952 23.211-8.939 35.435-8.939 11.435 0 22.869 2.624 33.387 7.872l276.928 138.453c25.493 12.715 41.323 38.315 41.323 66.816v565.44c0 26.069-13.227 49.813-35.413 63.531v0z" />
<glyph unicode="&#xe959;" glyph-name="Menu" d="M1002.667 234.688v-106.667h-981.333v106.667h981.333zM1002.667 512.021v-106.667h-746.667v106.667h746.667zM1002.667 789.333v-106.645h-981.333v106.645h981.333z" />
<glyph unicode="&#xe95a;" glyph-name="Menu-Mobile" d="M705.035 640c129.963 0 235.712-105.749 235.712-235.712 0-52.395-17.387-100.693-46.443-139.883v0l108.373-125.013-80.981-70.187-108.928 125.696c-32.32-16.725-68.885-26.325-107.733-26.325-129.963 0-235.691 105.749-235.691 235.712s105.728 235.712 235.691 235.712zM705.035 532.843c-70.891 0-128.555-57.664-128.555-128.555s57.664-128.555 128.555-128.555c70.912 0 128.576 57.664 128.576 128.555s-57.664 128.555-128.576 128.555zM341.333 405.333v-106.667h-320v106.667h320zM405.333 618.667v-106.667h-384v106.667h384zM21.355 831.998l575.979-0.085v-106.667l-576 0.085 0.021 106.667z" />
<glyph unicode="&#xe95b;" glyph-name="Mic" d="M224 554.667c0-152 134.592-285.333 288-285.333s288 133.333 288 285.333v0h106.667c0-194.517-151.573-360.96-341.333-387.797v0-102.869h138.667v-106.667h-384v106.667h138.667v102.869c-189.739 26.837-341.333 193.28-341.333 387.797v0zM512 938.667c105.877 0 192-86.144 192-192v0-192c0-105.877-86.123-192-192-192-105.856 0-192 86.123-192 192v0 192c0 105.856 86.144 192 192 192zM512 832c-47.061 0-85.333-38.272-85.333-85.333v0-192c0-47.061 38.272-85.333 85.333-85.333s85.333 38.272 85.333 85.333v0 192c0 47.061-38.272 85.333-85.333 85.333z" />
<glyph unicode="&#xe95c;" glyph-name="Minus" d="M21.333 405.333h981.333v106.667h-981.333z" />
<glyph unicode="&#xe95d;" glyph-name="Mitglied-werden-Empfehlen" d="M859.767 795.279c92.139-92.096 142.869-215.275 142.891-346.837 0-131.584-50.752-254.763-142.891-346.816-121.301-121.195-249.451-144.299-642.581-144.299-44.011 0-91.307 0.299-142.336 0.768l-52.373 0.491-0.469 52.352c-0.35 40.544-0.585 78.76-0.653 114.832l-0.003 39.685c0.722 383.681 24.602 510.284 144.294 629.824 191.424 191.189 502.784 191.189 694.123 0zM241.057 719.887c-90.609-90.51-112.635-179.692-113.027-563.737l0.004-25.189c0.028-21.337 0.115-43.544 0.255-66.669 27.74-0.188 54.161-0.3 79.343-0.322l24.771 0.008c373.58 0.592 461.96 23.149 551.929 113.039 72.021 71.915 111.659 168.32 111.659 271.424 0 103.083-39.659 199.488-111.659 271.467-149.739 149.632-393.429 149.611-543.275-0.021zM639.987 672.006c42.411 0 80.107-15.893 112.043-47.232 32.875-32.256 49.003-70.571 47.915-113.877-1.003-41.749-18.475-82.304-47.915-111.211l-240.043-239.68-240.384 240.021c-31.019 30.443-47.616 69.376-47.616 112.192 0 42.837 16.597 81.771 47.957 112.555 31.915 31.339 69.611 47.232 112.043 47.232 46.016 0 93.035-18.091 122.709-47.232l5.291-5.269 4.949 4.949c29.995 29.461 77.013 47.552 123.051 47.552zM639.987 565.489c-17.365 0-38.421-7.317-47.957-16.683l-80.043-79.957-80.384 80.277c-9.195 9.045-30.272 16.363-47.616 16.363-14.229 0-25.365-4.971-37.269-16.683-10.944-10.752-16.064-22.379-16.064-36.587s5.12-25.835 16.064-36.544l165.269-165.077 164.949 164.736c10.155 10.005 16.021 23.787 16.384 38.165 0.277 11.819-2.304 21.803-16.043 35.285-11.776 11.563-23.275 16.704-37.291 16.704z" />
<glyph unicode="&#xe95e;" glyph-name="New-Tab" d="M906.667 917.333c52.928 0 96-43.072 96-96v-608h-256v-256h-725.333v608c0 52.928 43.072 96 96 96h138.667v160c0 52.928 43.072 96 96 96h554.667zM256 554.667h-128v-490.667h512v149.333h-384v341.333zM362.667 320h533.333v490.667h-533.333v-490.667zM682.667 725.333v-106.667h106.667v-106.667h-106.667v-106.667h-106.667v106.667h-106.667v106.667h106.667v106.667h106.667z" />
<glyph unicode="&#xe95f;" glyph-name="Office" d="M608 938.667c76.459 0 138.667-62.208 138.667-138.667v-92.032l256-143.381v-607.253h-981.333v842.667c0 76.459 62.208 138.667 138.667 138.667h448zM608 832h-448c-17.344 0-32-14.656-32-32v-736h512v736c0 17.643-14.357 32-32 32zM746.667 585.707v-521.707h149.333v438.080l-149.333 83.627zM341.333 320v-106.667h-106.667v106.667h106.667zM533.333 320v-106.667h-106.667v106.667h106.667zM341.333 512v-106.667h-106.667v106.667h106.667zM533.333 512v-106.667h-106.667v106.667h106.667zM341.333 704v-106.667h-106.667v106.667h106.667zM533.333 704v-106.667h-106.667v106.667h106.667z" />
<glyph unicode="&#xe960;" glyph-name="Parking" d="M864 938.667c76.459 0 138.667-62.208 138.667-138.667v0-704c0-76.459-62.208-138.667-138.667-138.667v0h-704c-76.459 0-138.667 62.208-138.667 138.667v0 704c0 76.459 62.208 138.667 138.667 138.667v0zM864 832h-704c-17.643 0-32-14.357-32-32v0-704c0-13.391 16.816-32 32-32v0h704c16.826 0 32 13.802 32 32v0 704c0 17.643-14.357 32-32 32v0zM533.457 704c231.236 0 223.513-341.333 0-341.333h-85.388v-170.667h-106.735v512h192.124zM533.333 597.333h-85.333v-128h85.285c84.136 0 84.136 128 0.048 128z" />
<glyph unicode="&#xe961;" glyph-name="Pause" d="M426.667 853.333v-810.667h-128v810.667h128zM725.333 853.333v-810.667h-128v810.667h128z" />
<glyph unicode="&#xe962;" glyph-name="Pause-Circle" d="M512 938.667c270.571 0 490.667-220.117 490.667-490.667 0-270.571-220.096-490.667-490.667-490.667-270.549 0-490.667 220.096-490.667 490.667 0 270.549 220.117 490.667 490.667 490.667zM512 832c-211.733 0-384-172.267-384-384s172.267-384 384-384c211.733 0 384 172.267 384 384s-172.267 384-384 384zM448 640v-384h-106.667v384h106.667zM682.667 640v-384h-106.667v384h106.667z" />
<glyph unicode="&#xe963;" glyph-name="Pause-Circle-Filled" d="M576 256h106.667v384h-106.667v-384zM341.333 256h106.667v384h-106.667v-384zM512 938.667v0c270.976 0 490.667-219.669 490.667-490.667 0-270.976-219.691-490.667-490.667-490.667-270.997 0-490.667 219.691-490.667 490.667 0 270.997 219.669 490.667 490.667 490.667z" />
<glyph unicode="&#xe964;" glyph-name="PDF-file" d="M736 64h-448c-17.643 0-32 14.357-32 32v181.333h234.667v106.667h-234.667v416c0 17.643 14.357 32 32 32h202.667v-277.333h277.333v-458.667c0-17.643-14.357-32-32-32v0zM597.333 799.253l137.92-137.92h-137.92v137.92zM608.747 938.667h-320.747c-76.459 0-138.667-62.208-138.667-138.667v-704c0-76.459 62.208-138.667 138.667-138.667h448c76.459 0 138.667 62.208 138.667 138.667v576.768l-265.92 265.899z" />
<glyph unicode="&#xe965;" glyph-name="Pencil-Edit" d="M746.794 917.333l4.034-0.154c10.767-0.822 21.557-4.957 30.917-12.798l3.44-3.115 180.089-179.703 2.641-2.887c17.65-20.683 17.704-51.028 1.251-70.182l-2.463-2.658-73.358-73.34c-174.674-174.613-354.467-354.216-528.979-528.671l-65.174-65.159h-256.526v256.496l371.077 371.078c24.901 24.904 49.787 49.793 74.632 74.641l221.714 221.729c9.987 9.559 23.196 14.723 36.704 14.723zM197.931 239.552l-48.565-48.6v-105.599h105.632l48.576 48.577-105.643 105.621zM746.698 788.348l-473.311-473.361 105.621-105.6 473.343 473.341-105.653 105.62z" />
<glyph unicode="&#xe966;" glyph-name="Phone" d="M259.125 827.447l-103.829-103.829c-69.696-69.696 6.784-257.344 61.184-337.707 62.549-92.373 141.077-170.901 233.429-233.429 80.32-54.379 267.925-130.88 337.664-61.184l103.829 103.829-172.267 172.267-113.344-113.365-34.411 17.259c-111.019 55.744-181.653 126.4-236.203 236.309l-17.045 34.347 113.237 113.237-172.245 172.267zM705.44-42.675c-123.797 0-260.736 69.803-315.349 106.773-103.637 70.165-191.787 158.315-261.995 261.995-54.592 80.64-180.629 340.608-48.256 472.981l111.573 111.595c37.333 37.333 98.069 37.333 135.403 0l187.776-187.776c37.333-37.333 37.333-98.091 0-135.424l-65.856-65.813c34.965-59.691 76.608-101.269 136.981-136.811l65.749 65.749c37.312 37.355 98.069 37.355 135.381 0l187.755-187.755c18.112-18.091 28.075-42.133 28.075-67.712 0-25.6-9.963-49.643-28.096-67.733l-111.531-111.531c-42.688-42.709-98.667-58.539-157.611-58.539v0z" />
<glyph unicode="&#xe967;" glyph-name="Play-Circle" d="M512 938.667c270.571 0 490.667-220.117 490.667-490.667 0-270.571-220.096-490.667-490.667-490.667-270.549 0-490.667 220.096-490.667 490.667 0 270.549 220.117 490.667 490.667 490.667zM512 832c-211.733 0-384-172.267-384-384s172.267-384 384-384c211.733 0 384 172.267 384 384s-172.267 384-384 384zM421.888 696.521l341.333-202.667c16.192-9.6 26.112-27.051 26.112-45.845 0-18.816-9.92-36.267-26.112-45.867l-341.333-202.667c-8.384-4.971-17.792-7.467-27.221-7.467-9.088 0-18.197 2.325-26.389 6.976-16.661 9.472-26.944 27.179-26.944 46.357v405.312c0 19.179 10.283 36.864 26.944 46.357s37.141 9.301 53.611-0.491zM448 556.958v-217.941l183.552 108.992-183.552 108.949z" />
<glyph unicode="&#xe968;" glyph-name="Play-Circle-Filled" d="M512 938.667c270.976 0 490.667-219.669 490.667-490.667 0-270.976-219.691-490.667-490.667-490.667-270.997 0-490.667 219.691-490.667 490.667 0 270.997 219.669 490.667 490.667 490.667zM421.888 696.512c-16.469 9.813-36.949 10.005-53.611 0.512s-26.944-27.2-26.944-46.357v0-405.333c0-19.157 10.283-36.864 26.944-46.336 8.192-4.651 17.28-6.997 26.389-6.997 9.429 0 18.837 2.517 27.221 7.488v0l341.333 202.667c16.192 9.6 26.112 27.051 26.112 45.845 0 18.816-9.92 36.267-26.112 45.867v0zM447.991 556.971l183.552-108.971-183.552-108.971v217.941z" />
<glyph unicode="&#xe969;" glyph-name="Play-Filled" d="M827.179 493.889l-576 341.333c-16.469 9.771-36.949 9.92-53.589 0.469-16.64-9.493-26.923-27.179-26.923-46.336v-682.688c0-19.157 10.283-36.843 26.923-46.336 8.192-4.672 17.301-6.997 26.411-6.997 9.408 0 18.795 2.475 27.179 7.467l576 341.333c16.213 9.6 26.155 27.029 26.155 45.867s-9.941 36.267-26.155 45.888z" />
<glyph unicode="&#xe96a;" glyph-name="Play-Outline" d="M277.333 685.062v-495.467l418.048 247.744-418.048 247.723zM224 42.673c-9.109 0-18.219 2.325-26.411 6.997-16.64 9.472-26.923 27.157-26.923 46.336v682.667c0 19.179 10.283 36.864 26.923 46.357 16.64 9.451 37.12 9.301 53.589-0.469l576-341.333c16.213-9.621 26.155-27.051 26.155-45.888s-9.941-36.288-26.155-45.888l-576-341.333c-8.363-4.971-17.771-7.445-27.179-7.445v0z" />
<glyph unicode="&#xe96b;" glyph-name="Plus" d="M458.667 938.667v-437.333h-437.333v-106.667h437.333v-437.333h106.645v437.333h437.355v106.667h-437.355v437.333z" />
<glyph unicode="&#xe96c;" glyph-name="Podcast" d="M571.789 360.843v-403.51h-119.57v403.51c-39.276 21.191-65.958 62.625-65.958 110.285 0 69.209 56.303 125.33 125.743 125.33 69.432 0 125.743-56.122 125.743-125.33 0-47.659-26.682-89.094-65.958-110.285v0zM335.357 828.45c23.288 11.447 32.831 39.556 21.347 62.745-11.484 23.197-39.66 32.726-62.931 21.286-95.036-46.728-168.949-124.032-215.652-215.061-34.501-67.226-54.171-142.031-56.543-217.521-2.388-76.126 12.674-153.025 47.702-223.801 43.134-87.191 116.264-164.742 223.926-219.646 23.072-11.758 51.343-2.627 63.131 20.371 11.796 22.998 2.643 51.17-20.429 62.92-88.144 44.937-147.633 107.666-182.35 177.79-28 56.607-40.043 118.269-38.126 179.422 1.941 61.75 18.017 122.926 46.24 177.901 37.791 73.643 97.336 136.069 173.685 173.595v0zM730.236 912.489c-23.272 11.447-51.455 1.911-62.939-21.286s-1.933-51.305 21.355-62.745c76.356-37.534 135.902-99.952 173.677-173.603 28.215-54.967 44.3-116.144 46.232-177.901 1.917-61.153-10.127-122.815-38.118-179.422-34.716-70.124-94.206-132.853-182.35-177.79-23.072-11.758-32.216-39.93-20.429-62.92 11.788-22.998 40.059-32.121 63.131-20.371 107.654 54.896 180.792 132.455 223.926 219.646 35.028 70.777 50.090 147.675 47.702 223.801-2.372 75.489-22.042 150.294-56.535 217.521-46.711 91.028-120.616 168.333-215.652 215.069v0zM682.526 706.336c-17.53 12.586-41.976 8.613-54.602-8.86-12.618-17.473-8.641-41.84 8.889-54.426 7.068-5.071 14-10.763 20.796-16.988 39.7-36.483 63.243-85.13 68.186-136.602 4.999-51.934-8.873-106.965-44.068-155.644-5.974-8.271-12.858-16.653-20.644-25.076-14.655-15.857-13.64-40.583 2.292-55.182 15.925-14.6 40.722-13.573 55.369 2.285 9.424 10.181 18.257 21.024 26.474 32.415 46.815 64.79 65.216 138.513 58.475 208.541-6.772 70.474-38.901 136.984-93.024 186.729-8.513 7.825-17.897 15.435-28.143 22.807v0zM387.187 643.027c17.53 12.586 21.515 36.953 8.889 54.426s-37.072 21.446-54.602 8.868c-10.254-7.371-19.63-14.982-28.143-22.799-54.131-49.753-86.259-116.255-93.032-186.729-6.74-70.021 11.66-143.767 58.483-208.557 8.234-11.384 17.059-22.218 26.474-32.399 14.647-15.857 39.444-16.884 55.361-2.285 15.941 14.6 16.955 39.317 2.3 55.182-7.787 8.43-14.671 16.805-20.644 25.076-35.187 48.678-49.067 103.701-44.068 155.636 4.943 51.465 28.487 100.119 68.186 136.602 6.804 6.217 13.736 11.909 20.796 16.98v0z" />
<glyph unicode="&#xe96d;" glyph-name="Power" d="M341.333 796.437v-120.17c-89.75-56.746-149.333-157.126-149.333-270.933 0-176.444 143.556-320 320-320s320 143.556 320 320c0 113.722-59.736 214.153-149.374 270.933l0.015 120.123c150.576-65.963 256.025-216.429 256.025-391.056 0-235.279-191.388-426.667-426.667-426.667-235.26 0-426.667 191.388-426.667 426.667 0 174.673 105.363 325.172 256 391.103zM458.667 676.267v241.067h106.667v-241.045l63.966-0.043-63.966 0.001v-164.245h-106.667v164.266z" />
<glyph unicode="&#xe96e;" glyph-name="Print" d="M896 266.667c0-17.643-14.357-32-32-32h-74.667v192h-554.667v-192h-74.667c-17.643 0-32 14.357-32 32v256c0 17.643 14.357 32 32 32h704c17.643 0 32-14.357 32-32v-256zM341.333 64v256h341.333v-256h-341.333zM277.333 661.333v170.667h469.333v-170.667h-469.333zM864 661.333h-10.667v277.333h-682.667v-277.333h-10.667c-76.459 0-138.667-62.208-138.667-138.667v-256c0-76.459 62.208-138.667 138.667-138.667h74.667v-170.667h554.667v170.667h74.667c76.459 0 138.667 62.208 138.667 138.667v256c0 76.459-62.208 138.667-138.667 138.667v0z" />
<glyph unicode="&#xe96f;" glyph-name="Proximity-Search" d="M129.052 384c26.402-150.075 136.925-276.070 297.615-311.467l0.001-0.084 0.020-103.429 0.001-1.116 0.008-3.836c-219.306 38.572-373.729 209.311-404.224 411.917l-1.139 8.014h107.718zM790.773 266.95c0 0 2.682-1.26 7.151-3.361l9.783-4.597c7.552-3.549 16.905-7.944 26.517-12.461l9.64-4.53c22.426-10.539 43.451-20.419 43.451-20.419-67.879-130.38-193.574-229.301-353.981-257.514l0.021 103.513 0.001 1.116 0.008 3.836c116.466 25.655 206.578 98.903 257.41 194.417zM757.276 938.667c63.162-0.015 125.566-24.773 171.258-67.893 47.788-45.133 74.12-105.948 74.135-171.264-0.059-41.787-9.501-76.022-30.57-111.205-28.637-47.888-79.384-97.463-147.958-162.291l-67.073-63.347-66.909 63.495c-123.574 117.32-178.201 173.382-178.157 273.437 0 42.039 11.583 83.663 33.529 120.341 44.502 74.349 123.648 118.727 211.745 118.727zM480 501.333c35.346 0 64-28.654 64-64s-28.654-64-64-64c-35.346 0-64 28.654-64 64 0.043 35.329 28.671 63.957 64 64zM426.697 910.413l-0.007-2.851c-0.001-0.612-0.001-1.314-0.002-2.101l-0.018-103.182c-0.001-0.218-0.002-0.331-0.003-0.331-160.69-35.397-271.213-161.392-297.615-311.467h-107.718c27.582 206.104 183.172 380.851 405.363 419.931zM757.207 832.009c-50.453 0-95.531-24.893-120.491-66.572-11.797-19.672-18.048-41.785-18.048-63.856-0.001-2.010 0.028-3.988 0.102-5.946l0.209-3.896c2.484-34.919 22.162-66.882 138.377-179.73 58.56 56.428 103.616 103.243 124.864 138.747 10.539 17.55 13.739 29.413 13.781 50.826-0.021 35.143-13.781 66.784-39.808 91.338-26.347 24.829-62.421 39.069-98.987 39.090z" />
<glyph unicode="&#xe970;" glyph-name="Question-Circle" d="M512 938.667c270.571 0 490.667-220.117 490.667-490.667 0-270.571-220.096-490.667-490.667-490.667-270.549 0-490.667 220.096-490.667 490.667 0 270.549 220.117 490.667 490.667 490.667zM512 832c-211.733 0-384-172.267-384-384s172.267-384 384-384c211.733 0 384 172.267 384 384s-172.267 384-384 384zM512 256c35.349 0 64-28.651 64-64s-28.651-64-64-64c-35.349 0-64 28.651-64 64s28.651 64 64 64zM512 768c105.877 0 192-86.144 192-192 0-105.003-75.349-158.549-138.667-180.416v-75.584h-106.667v164.416l46.699 5.824c9.131 1.28 91.968 14.805 91.968 85.76 0 47.061-38.272 85.333-85.333 85.333s-85.333-38.272-85.333-85.333h-106.667c0 105.856 86.144 192 192 192z" />
<glyph unicode="&#xe971;" glyph-name="Questionmark-filled" d="M512 938.667c270.571 0 490.667-220.117 490.667-490.667 0-270.571-220.096-490.667-490.667-490.667-270.549 0-490.667 220.096-490.667 490.667 0 270.549 220.117 490.667 490.667 490.667zM512 256c-35.349 0-64-28.651-64-64s28.651-64 64-64c35.349 0 64 28.651 64 64s-28.651 64-64 64zM512 768c-105.856 0-192-86.144-192-192v0h106.667c0 47.061 38.272 85.333 85.333 85.333s85.333-38.272 85.333-85.333c0-70.955-82.837-84.48-91.968-85.76v0l-46.699-5.824v-164.416h106.667v75.584c63.317 21.867 138.667 75.413 138.667 180.416 0 105.856-86.123 192-192 192z" />
<glyph unicode="&#xe972;" glyph-name="Rueckrufservice" d="M165.333 763.469c34.496 34.496 90.624 34.496 125.12 0v0l155.627-155.648c34.496-34.496 34.496-90.624 0-125.12v0l-49.536-49.536c26.219-42.859 57.301-73.877 100.672-100.48v0l49.451 49.429c16.661 16.704 38.891 25.92 62.549 25.92 23.616 0 45.867-9.216 62.571-25.92v0l155.627-155.648c16.704-16.704 25.92-38.933 25.92-62.571s-9.216-45.867-25.941-62.571v0l-92.459-92.459c-25.792-25.792-68.8-51.52-137.813-51.52-26.965 0-57.941 3.925-93.397 13.355-76.053 20.181-144.149 57.941-172.395 77.056-86.869 58.837-160.747 132.715-219.584 219.627-19.136 28.224-56.875 96.341-77.056 172.373-33.472 126.101 2.261 195.349 38.144 231.211v0zM227.904 675.17l-79.637-79.637c-55.168-55.147 13.781-212.16 51.819-268.352 51.179-75.627 115.456-139.904 191.061-191.061 56.171-38.037 213.12-106.987 268.373-51.819v0l79.595 79.616-129.899 129.899-92.181-92.181-34.411 17.28c-93.909 47.168-153.707 106.965-199.851 199.979v0l-17.024 34.325 92.053 92.053-129.899 129.899zM762.263 938.667l75.456-75.285-122.24-122.112h287.189v-106.496h-287.296l122.325-122.091-75.413-75.349-213.333 212.928c-9.984 9.984-15.616 23.531-15.616 37.653s5.611 27.669 15.595 37.653v0l213.333 213.099z" />
<glyph unicode="&#xe973;" glyph-name="Screen-Share" d="M906.656 640c52.928 0 96-43.072 96-96v-490.667c0-52.928-43.072-96-96-96h-490.667c-52.928 0-96 43.072-96 96v490.667c0 52.928 43.072 96 96 96h490.667zM895.989 533.333h-469.333v-469.333h469.333v469.333zM608 938.667c52.928 0 96-43.072 96-96v-117.333h-106.667v106.667h-469.333v-469.333h106.667v-106.667h-117.333c-52.949 0-96 43.072-96 96v490.667c0 52.928 43.051 96 96 96h490.667z" />
<glyph unicode="&#xe974;" glyph-name="Search" d="M128 565.333c0 147.051 119.616 266.667 266.667 266.667s266.667-119.616 266.667-266.667c0-147.051-119.616-266.667-266.667-266.667s-266.667 119.616-266.667 266.667v0zM1002.667 32.747l-309.419 309.419c46.72 62.336 74.752 139.456 74.752 223.168 0 205.845-167.488 373.333-373.333 373.333s-373.333-167.488-373.333-373.333c0-205.845 167.488-373.333 373.333-373.333 83.712 0 160.832 28.032 223.168 74.752l309.419-309.419 75.413 75.413z" />
<glyph unicode="&#xe975;" glyph-name="Share" d="M789.333 64c-35.285 0-64 28.715-64 64s28.715 64 64 64c35.285 0 64-28.715 64-64s-28.715-64-64-64zM234.667 384c-35.285 0-64 28.715-64 64s28.715 64 64 64c35.285 0 64-28.715 64-64s-28.715-64-64-64zM789.333 832c35.285 0 64-28.715 64-64s-28.715-64-64-64c-35.285 0-64 28.715-64 64s28.715 64 64 64zM789.333 298.667c-44.48 0-84.907-17.259-115.328-45.227l-272.661 158.229c2.56 11.733 3.989 23.851 3.989 36.331 0 12.139-1.323 23.979-3.755 35.435l274.475 157.248c30.187-26.88 69.803-43.349 113.28-43.349 94.101 0 170.667 76.565 170.667 170.667s-76.565 170.667-170.667 170.667c-94.101 0-170.667-76.565-170.667-170.667 0-12.053 1.301-23.787 3.691-35.136l-274.645-157.355c-30.144 26.752-69.675 43.157-113.045 43.157-94.101 0-170.667-76.565-170.667-170.667s76.565-170.667 170.667-170.667c43.051 0 82.304 16.149 112.363 42.539l274.795-159.488c-2.005-10.517-3.157-21.291-3.157-32.384 0-94.101 76.565-170.667 170.667-170.667s170.667 76.565 170.667 170.667c0 94.101-76.565 170.667-170.667 170.667z" />
<glyph unicode="&#xe976;" glyph-name="Shrink" d="M917.333 384v-106.667h-234.667v-234.667h-106.667v266.667c0 41.173 33.493 74.667 74.667 74.667h266.667zM373.333 384c41.173 0 74.667-33.493 74.667-74.667v0-266.667h-106.667v234.667h-234.667v106.667zM682.667 853.333v-234.667h234.667v-106.667h-266.667c-41.173 0-74.667 33.493-74.667 74.667v0 266.667h106.667zM448 853.333v-266.667c0-41.173-33.493-74.667-74.667-74.667h-266.667v106.667h234.667v234.667h106.667z" />
<glyph unicode="&#xe977;" glyph-name="Sign" d="M810.667 63.998v-106.667h-789.333v106.667h789.333zM341.333 234.665v-106.667h-320v106.667h320zM768.892 938.667l233.771-233.941-427.456-427.392h-233.877v233.856l427.563 427.477zM768.828 786.837l-320.128-320.085v-82.091h82.069l320.085 320.107-82.027 82.069z" />
<glyph unicode="&#xe978;" glyph-name="Social-Facebook" d="M244.373-64.981h535.275v1025.941h-535.275z" />
<glyph unicode="&#xe979;" glyph-name="Social-Instagram" d="M-3.2-67.2h1030.4v1030.4h-1030.4zM235.52 171.499h552.981v552.981h-552.981zM690.496 626.496h166.827v166.827h-166.827z" />
<glyph unicode="&#xe97a;" glyph-name="Social-Kununu" d="M-0.96-18.411h639.872v903.68h-639.872zM678.592 730.859h192.363v192.661h-192.363zM837.781 730.283h192.363v193.237h-192.363zM677.483 571.115h192.384v192.661h-192.384zM836.693 572.224h192.384v192.661h-192.384z" />
<glyph unicode="&#xe97b;" glyph-name="Social-LinkedIn" d="M-3.2-67.2h1030.4v1030.4h-1030.4z" />
<glyph unicode="&#xe97c;" glyph-name="Social-Twitter" d="M-3.2 19.2h1030.4v880.533h-1030.4z" />
<glyph unicode="&#xe97d;" glyph-name="Social-Xing" d="M61.953 228.821h405.205v538.347h-405.205zM385.515-64.981h570.645v1025.941h-570.645z" />
<glyph unicode="&#xe97e;" glyph-name="Social-YouTube" d="M-0.96 97.941h1025.941v713.707h-1025.941z" />
<glyph unicode="&#xe97f;" glyph-name="Sort" d="M405.376 938.667v-802.603l197.867 190.357 74.091-76.843-288.299-277.333c-10.347-9.941-23.701-14.912-37.035-14.912-13.355 0-26.709 4.971-37.035 14.912l-288.299 277.333 74.048 76.843 197.888-190.357v802.603h106.773zM798.222 554.667v-106.667h-286.222v106.667h286.222zM900.444 746.667v-106.667h-388.444v106.667h388.444zM1002.667 938.667v-106.667h-490.667v106.667h490.667z" />
<glyph unicode="&#xe980;" glyph-name="Soundcloud" d="M21.333 270.248c0-12.409 4.415-21.792 13.243-28.152s18.266-8.608 28.312-6.747c9.437 1.861 16.058 5.274 19.865 10.237 3.805 4.963 5.708 13.184 5.708 24.662v134.944c0 9.617-3.272 17.76-9.818 24.429s-14.536 10.004-23.974 10.004c-9.133 0-16.972-3.334-23.517-10.004s-9.819-14.812-9.819-24.429v-134.944zM126.362 212.548c0-8.998 3.121-15.744 9.361-20.242s14.233-6.747 23.974-6.747c10.046 0 18.189 2.249 24.431 6.747s9.361 11.245 9.361 20.242v314.558c0 9.306-3.273 17.295-9.818 23.964s-14.537 10.004-23.974 10.004c-9.133 0-16.973-3.335-23.517-10.004s-9.818-14.658-9.818-23.964v-314.558zM230.934 197.657c0-8.997 3.197-15.744 9.59-20.242s14.613-6.747 24.66-6.747c9.741 0 17.732 2.249 23.973 6.747s9.362 11.246 9.362 20.242v287.104c0 9.616-3.273 17.838-9.818 24.662s-14.384 10.236-23.517 10.236c-9.438 0-17.505-3.412-24.202-10.236s-10.046-15.046-10.046-24.662v-287.104h-0.001zM335.963 196.261c0-17.062 11.264-25.594 33.792-25.594s33.791 8.531 33.791 25.594v465.323c0 26.058-7.763 40.793-23.289 44.206-10.046 2.482-19.941-0.465-29.682-8.841s-14.613-20.163-14.613-35.365v-465.323h0.001zM442.819 182.767v506.271c0 16.131 4.718 25.747 14.156 28.85 20.397 4.963 40.642 7.445 60.734 7.445 46.577 0 89.959-11.168 130.143-33.503s72.684-52.814 97.494-91.436c24.811-38.623 39.196-81.199 43.153-127.732 18.57 8.066 38.357 12.098 59.363 12.098 42.621 0 79.077-15.356 109.367-46.067s45.437-67.627 45.437-110.748c0-43.43-15.146-80.501-45.437-111.212s-66.594-46.067-108.91-46.067l-397.282 0.465c-2.741 0.931-4.796 2.637-6.166 5.119s-2.052 4.655-2.052 6.516v0z" />
<glyph unicode="&#xe981;" glyph-name="Speech-Bubbble" d="M128.289 64.292c462.336-3.136 558.251 15.019 656.043 112.725 72.021 71.915 111.659 168.32 111.659 271.424 0 103.083-39.659 199.488-111.659 271.467-149.739 149.632-393.429 149.611-543.275-0.021-97.429-97.323-115.563-193.109-112.768-655.595zM217.185-42.673c-44.011 0-91.307 0.299-142.336 0.768l-52.373 0.491-0.469 52.352c-4.373 506.795 9.152 650.027 143.637 784.341 191.424 191.189 502.784 191.189 694.123 0 92.139-92.096 142.869-215.275 142.891-346.837 0-131.584-50.752-254.763-142.891-346.816-121.301-121.195-249.451-144.299-642.581-144.299z" />
<glyph unicode="&#xe982;" glyph-name="Spotify" d="M512 938.667c-270.982 0-490.667-219.677-490.667-490.658 0-271.009 219.685-490.676 490.667-490.676 270.994 0 490.667 219.666 490.667 490.676 0 270.963-219.661 490.634-490.673 490.634l0.006 0.023zM737.017 230.997c-8.812-14.455-27.644-18.984-42.052-10.177-115.221 70.421-260.248 86.329-431.044 47.313-16.458-3.774-32.864 6.545-36.614 22.997-3.768 16.458 6.503 32.864 23.003 36.613 186.908 42.731 347.234 24.339 476.564-54.689 14.414-8.848 18.983-27.656 10.136-42.069l0.006 0.012zM797.073 364.58c-11.097-18.005-34.64-23.653-52.621-12.597-131.861 81.055-332.931 104.533-488.932 57.179-20.232-6.111-41.6 5.291-47.741 25.487-6.094 20.232 5.314 41.559 25.511 47.711 178.196 54.068 399.72 27.878 551.18-65.195 17.988-11.074 23.671-34.628 12.597-52.592l0.006 0.006zM802.229 503.7c-158.163 93.928-419.050 102.565-570.036 56.74-24.245-7.353-49.885 6.334-57.232 30.579-7.347 24.257 6.328 49.879 30.591 57.25 173.321 52.615 461.447 42.45 643.516-65.634 21.808-12.943 28.962-41.108 16.036-62.886-12.89-21.808-41.132-28.997-62.869-16.048h-0.006z" />
<glyph unicode="&#xe983;" glyph-name="Sprache-Gebaerde" d="M459.137 303.083c8.789 14.997 175.851 320.896 175.851 320.896 8.875 17.6 30.357 24.704 47.979 15.851 8.533-4.288 14.976-11.797 17.941-20.843 3.371-9.429 2.709-19.84-1.792-28.779l-100.523-196.907c-4.075-7.723-1.088-17.28 6.635-21.333 6.912-3.605 15.424-1.685 20.096 4.544l147.221 190.976c11.456 13.653 31.808 15.467 45.483 4.053 12.48-10.411 15.232-28.459 6.421-42.133l-138.88-198.059c-6.4-8.661-4.565-20.864 4.096-27.264 8.085-5.931 19.371-4.8 26.133 2.645l131.072 137.941c12.181 13.483 32.96 14.571 46.464 2.453 13.483-12.117 14.571-32.875 2.411-46.357l-145.643-171.051c-4.736-5.547-4.075-13.888 1.472-18.624 1.771-1.515 3.904-2.517 6.229-2.923 3.925-0.661 7.979 0.427 11.008 3.008l126.4 109.931c6.635 5.824 15.424 8.64 24.235 7.723 17.749-1.6 30.805-17.301 29.184-35.029-0.341-3.456-1.216-6.848-2.624-10.027l0.107 0.192c-1.771-4.096-4.373-7.787-7.68-10.816-33.131-30.571-120.32-111.211-212.885-199.808-33.344-32.405-69.824-61.461-108.885-86.741-53.397-33.557-119.936-38.592-177.707-13.419-55.552 24-140.437 73.771-140.437 181.099l-9.301 299.136c0.811 27.584 23.872 49.259 51.499 48.427 25.728-0.747 46.677-20.885 48.427-46.507l3.328-141.589c0.363-15.701 8.533-28.544 23.68-32.768 13.269-3.84 30.805 1.259 42.987 22.101zM239.566 462.624c-0.043 5.141-2.283 10.027-6.165 13.419l-86.443 75.243c-19.883 17.344-49.856 16.235-68.437-2.475-19.435-19.52-19.349-51.072 0.192-70.485 0.683-0.661 1.387-1.323 2.112-1.941l148.629-131.669c2.901-2.795 7.488-2.709 10.283 0.149 1.451 1.515 2.176 3.541 2.027 5.632l-2.197 112.128zM562.898 618.251c12.16 43.115 22.101 223.637 22.101 223.637 1.813 18.027-11.328 34.133-29.397 35.947-0.683 0.085-1.387 0.128-2.069 0.149-17.173 0.107-31.787-12.544-34.091-29.525l-28.501-186.261c-1.6-10.645-11.563-17.984-22.229-16.384-0.875 0.128-1.749 0.32-2.624 0.576-8.277 2.389-14.059 9.835-14.293 18.411l0.341 241.707c-0.021 17.792-14.507 32.192-32.341 32.171-9.28-0.021-18.091-4.011-24.192-10.965-4.949-5.909-7.765-13.269-8-20.949l-11.328-238.613c-0.149-7.403-5.227-13.824-12.416-15.68-8.683-1.813-17.216 3.733-19.051 12.416-0.107 0.491-0.192 1.003-0.235 1.536l-31.040 218.731c-2.475 19.541-20.352 33.387-39.936 30.933-8.747-1.088-16.789-5.397-22.571-12.053-7.147-8.299-10.368-19.264-8.896-30.123l32.747-309.675 0.448-4.437c0.917-6.507 6.955-11.029 13.461-10.112 0.149 0.021 0.299 0.043 0.427 0.064 18.411 4.821 32.085 18.176 70.293 12.416 42.389-6.507 74.539-39.744 75.499-93.419l0.896-40.725c0.619-6.549 6.4-11.349 12.949-10.752 2.773 0.277 5.376 1.472 7.339 3.435 12.224 8.149 106.709 197.547 106.709 197.547z" />
<glyph unicode="&#xe984;" glyph-name="Sprache-Leicht" d="M74.389 661.22c180.672 1.195 313.237-5.781 437.611-97.707 124.352 91.904 256 98.837 437.632 97.707v0l53.035-0.277v-597.803l-53.632 0.299c-206.592 1.152-295.893-12.16-389.397-89.067-13.781-11.371-30.699-17.045-47.616-17.045-16.939 0-33.877 5.696-47.701 17.067-93.461 76.885-183.253 90.112-389.355 89.045v0l-53.632-0.299v597.803zM896 554.468c-163.328-1.792-248.085-18.667-330.667-84.416v0-363.541c96.256 52.544 200.149 62.571 330.667 63.573v0zM128 554.468v-384.384c130.539-1.003 234.411-11.008 330.667-63.573v0 363.541c-82.603 65.728-167.36 82.624-330.667 84.416v0zM512 938.667c64.789 0 117.333-52.523 117.333-117.333s-52.544-117.333-117.333-117.333c-64.811 0-117.333 52.523-117.333 117.333s52.523 117.333 117.333 117.333z" />
<glyph unicode="&#xe985;" glyph-name="Star-Filled" d="M241.35-21.333c-10.923 0-21.909 3.423-31.104 10.183-15.765 11.007-24.085 31.056-20.8 50.81l47.040 274.839-199.488 194.515c-14.101 13.796-19.243 34.796-13.12 53.514 6.208 18.993 22.4 32.641 42.219 35.62l275.84 40.268 123.221 249.72c8.491 17.662 26.987 29.197 46.997 29.197 19.883 0 38.357-11.493 47.040-29.261l123.2-249.656 275.349-40.057c19.925-3 36.117-16.648 42.304-35.641 6.187-18.845 1.237-39.338-12.907-53.514l-199.701-194.515 47.061-274.755c3.243-19.627-4.736-39.085-20.8-50.895-15.509-11.578-38.080-13.331-55.445-4.225l-246.293 129.571-246.272-129.55c-7.531-4.12-15.915-6.169-24.341-6.169v0z" />
<glyph unicode="&#xe986;" glyph-name="Synonym" d="M565.333 213.333v-106.667h-106.667v106.667h106.667zM213.333 661.333c106.039 0 192-85.961 192-192s-85.961-192-192-192c-106.039 0-192 85.961-192 192s85.961 192 192 192zM810.667 661.333c106.039 0 192-85.961 192-192s-85.961-192-192-192c-106.039 0-192 85.961-192 192s85.961 192 192 192zM565.333 405.333v-106.667h-106.667v106.667h106.667zM213.333 554.667c-47.128 0-85.333-38.205-85.333-85.333s38.205-85.333 85.333-85.333c47.128 0 85.333 38.205 85.333 85.333s-38.205 85.333-85.333 85.333zM810.667 554.667c-47.128 0-85.333-38.205-85.333-85.333s38.205-85.333 85.333-85.333c47.128 0 85.333 38.205 85.333 85.333s-38.205 85.333-85.333 85.333zM565.333 597.333v-106.667h-106.667v106.667h106.667zM565.333 789.333v-106.667h-106.667v106.667h106.667z" />
<glyph unicode="&#xe987;" glyph-name="Target" d="M998.4 384c-26.907-211.317-194.455-391.436-422.4-422.634v107.923c166.301 28.756 287.446 157.134 314.627 314.711h107.773zM133.368 384c26.889-152.844 140.916-280.556 306.45-313.183l8.182-1.528v-107.923c-228.371 32.556-390.040 206.936-421.242 414.823l-1.109 7.811h107.718zM512 533.333c47.128 0 85.333-38.205 85.333-85.333s-38.205-85.333-85.333-85.333c-47.128 0-85.333 38.205-85.333 85.333 0.057 47.105 38.229 85.276 85.333 85.333zM576.064 934.414c225.389-29.375 392.076-205.925 421.327-414.74l1.009-7.654h-107.773c-25.26 151.556-144.065 283.392-306.662 313.493l-7.902 1.377v107.523zM448.446 934.414v-107.523c-166.641-27.23-289.411-160.87-315.079-314.87h-107.718c26.204 212.14 194.659 392.66 422.797 422.393z" />
<glyph unicode="&#xe988;" glyph-name="Top" d="M522.667 746.667c13.574 0 27.147-4.971 37.642-14.912l293.025-277.333-75.262-76.843-202.071 190.357v-610.603h-106.629v610.603l-202.066-190.357-75.305 76.843 293.025 277.333c10.516 9.941 24.090 14.912 37.642 14.912zM938.667 938.667v-106.667h-853.333v106.667h853.333z" />
<glyph unicode="&#xe989;" glyph-name="Train" d="M757.333 938.667c76.459 0 138.667-62.208 138.667-138.667v0-490.667c0-66.189-46.619-121.698-108.744-135.416 0 0 31.45-54.429 94.351-163.286v0l-92.273-53.333c-82.188 142.246-123.282 213.369-123.282 213.369-80.533 0-150.049 0.477-208.544 0.562l-29.938 0.004c-25.696-0.038-48.952-0.196-69.766-0.565 0 0-41.045-71.123-123.136-213.369v0l-92.373 53.333c62.958 108.86 94.436 163.29 94.436 163.29-62.118 13.723-108.73 69.229-108.73 135.413v0 490.667c0 76.459 62.208 138.667 138.667 138.667v0zM757.333 832h-490.667c-17.643 0-32-14.357-32-32v0-490.667c0-13.391 16.816-32 32-32v0h490.667c16.826 0 32 13.802 32 32v0 490.667c0 17.643-14.357 32-32 32v0zM373.333 469.333c29.455 0 53.333-23.878 53.333-53.333s-23.878-53.333-53.333-53.333c-29.455 0-53.333 23.878-53.333 53.333s23.878 53.333 53.333 53.333zM650.667 469.333c29.455 0 53.333-23.878 53.333-53.333s-23.878-53.333-53.333-53.333c-29.455 0-53.333 23.878-53.333 53.333s23.878 53.333 53.333 53.333zM704 746.667v-106.667h-384v106.667h384z" />
<glyph unicode="&#xe98a;" glyph-name="Unlock" d="M501.333 938.667c185.173 0 246.635-110.187 265.579-202.624l-104.491-21.419c-16.64 81.173-66.347 117.376-161.088 117.376-84.885 0-131.584-63.531-138.667-110.208l-0.021-166.144 512.021-0.009v-501.333c0-52.928-43.072-96-96-96h-533.333c-52.928 0-96 43.072-96 96v501.333l106.688 0.009 0.363 176.021c11.989 100.352 101.909 206.997 244.949 206.997zM768 448.972h-512v-384h512v384zM512.011 331.639c35.349 0 64-28.651 64-64s-28.651-64-64-64c-35.349 0-64 28.651-64 64s28.651 64 64 64z" />
<glyph unicode="&#xe98b;" glyph-name="Video-Camera" d="M896 350.379l-133.632 97.621 133.632 97.643v-195.264zM128 213.333v469.333h490.667v-469.333h-490.667zM961.813 675.243c-25.216 12.779-55.040 10.368-77.845-6.293l-158.635-115.904v140.288c0 52.949-43.072 96-96 96h-512c-52.928 0-96-43.051-96-96v-490.667c0-52.928 43.072-96 96-96h512c52.928 0 96 43.072 96 96v140.288l158.592-115.84c13.077-9.621 28.501-14.485 44.011-14.485 11.52 0 23.104 2.688 33.835 8.128 25.237 12.779 40.896 38.315 40.896 66.581v321.323c0 28.267-15.659 53.76-40.853 66.581v0z" />
<glyph unicode="&#xe98c;" glyph-name="Video-Chat" d="M810.667 85.333v-106.667h-597.333v106.667h597.333zM864 896c76.459 0 138.667-62.208 138.667-138.667v0-469.333c0-76.459-62.208-138.667-138.667-138.667v0h-704c-76.459 0-138.667 62.208-138.667 138.667v0 469.333c0 76.459 62.208 138.667 138.667 138.667v0zM864 789.333h-704c-17.643 0-32-14.357-32-32v0-469.333c0-13.391 16.816-32 32-32v0h704c16.826 0 32 13.802 32 32v0 469.333c0 17.643-14.357 32-32 32v0zM374.445 700.795c7.28 4.342 16.24 4.274 23.445-0.216v0l252-156.829c7.093-4.421 11.443-12.429 11.443-21.084s-4.349-16.663-11.443-21.074v0l-252-156.829c-3.668-2.294-7.775-3.431-11.891-3.431-3.985 0-7.971 1.068-11.555 3.215-7.28 4.362-11.779 12.488-11.779 21.29v0 313.668c0 8.802 4.499 16.928 11.779 21.29z" />
<glyph unicode="&#xe98d;" glyph-name="Virus" d="M596.353 938.667v-106.667h-32.058v-111.59c50.751-9.684 96.595-33.199 133.46-66.473 0 0 15.748 12.371 47.245 37.113v0l-19.797 24.369 82.896 67.128 107.404-132.633-82.896-67.128-20.653 25.265-50.211-39.316c18.393-51.64 27.59-91.885 27.59-120.736 0-42.776-9.685-83.291-26.981-119.47 0 0 45.008-35.115 135.025-105.345v0l19.712 24.282 82.896-67.128-107.404-132.633-82.896 67.128 20.701 25.364c-87.718 68.548-131.577 102.822-131.577 102.822-37.031-33.768-83.246-57.637-134.46-67.42v0-111.6h32.002v-106.667h-170.667v106.667h32l0.019 13.98c0.009 6.757 0.018 13.164 0.026 19.222l0.016 11.65c0.003 1.864 0.005 3.689 0.007 5.475l0.014 10.252c0.002 1.631 0.004 3.223 0.006 4.776l0.017 12.931c0.002 1.32 0.004 2.602 0.005 3.844l0.014 10.135c0.001 1.010 0.003 1.98 0.004 2.912l0.019 13.863c0.001 0.388 0.001 0.738 0.001 1.048l0.003 1.864c-51.632 10.222-98.109 34.776-135.113 69.343 0 0-22.894-17.951-68.681-53.854v0l20.609-25.408-82.896-67.128-107.404 132.633 82.896 67.128 19.725-24.378c48.829 38.188 73.243 57.282 73.243 57.282-16.398 35.403-25.549 74.847-25.549 116.429 0 48.391 12.394 93.887 34.18 133.488v0l-0.333 0.26c-3.99 3.116-43.892 34.277-119.704 93.484v0l-23.248-28.65-82.896 67.128 107.404 132.633 82.896-67.128-16.992-20.973c80.812-63.284 121.218-94.926 121.218-94.926 34.319 27.897 75.437 47.753 120.484 56.7v0 111.985h-31.989v106.667h170.667zM512 618.667c-94.257 0-170.667-76.41-170.667-170.667s76.41-170.667 170.667-170.667c94.257 0 170.667 76.41 170.667 170.667s-76.41 170.667-170.667 170.667z" />
<glyph unicode="&#xe98e;" glyph-name="Volume_decrease" d="M788.721 930.031c26.688-13.803 43.285-40.981 43.285-70.955v-239.851h-106.667v187.093l-367.851-251.221h-165.483v-213.803h165.483l367.851-251.221v187.072h106.667v-242.197c0-29.227-16.064-55.68-41.92-69.013-11.157-5.76-23.211-8.597-35.243-8.597-15.659 0-31.232 4.821-44.544 14.336l-385.109 262.72h-239.851v427.605h239.829l386.475 263.616c21.632 15.445 51.691 17.515 77.077 4.416zM949.333 501.333v-106.667h-341.333v106.667h341.333z" />
<glyph unicode="&#xe98f;" glyph-name="Volume_increase" d="M788.715 930.033c26.688-13.803 43.285-40.981 43.285-70.955v-155.072h-106.667v102.315l-367.851-251.221h-165.483v-213.803h165.483l367.851-251.221v101.931h106.667v-157.056c0-29.227-16.064-55.68-41.92-69.013-11.157-5.76-23.211-8.597-35.243-8.597-15.659 0-31.232 4.821-44.544 14.336l-385.109 262.72h-239.851v427.605h239.829l386.475 263.616c21.632 15.445 51.691 17.515 77.077 4.416zM831.994 618.669v-117.333h117.333v-106.667h-117.333v-117.333h-106.667v117.333h-117.333v106.667h117.333v117.333h106.667z" />
<glyph unicode="&#xe990;" glyph-name="Volume_medium" d="M640.96 866.389c25.728-13.269 41.707-39.403 41.707-68.267v-723.307c0-28.139-15.531-53.653-40.491-66.517-10.795-5.547-22.464-8.299-34.069-8.299-15.147 0-30.208 4.672-43.093 13.824l-326.016 231.509h-217.664v384.277l217.664-0.235 326.037 231.872c22.251 15.808 51.349 17.813 75.925 5.141zM576 738.133l-302.997-215.467-145.003 0.149v-170.795h145.003l302.997-215.147v601.259zM768 661.333c123.52 0 224-100.48 224-224s-100.48-224-224-224v106.667c64.683 0 117.333 52.651 117.333 117.333 0 64.704-52.651 117.333-117.333 117.333v106.667z" />
<glyph unicode="&#xe991;" glyph-name="Volume_mute" d="M767.381 930.033c26.688-13.803 43.285-40.981 43.285-70.955v-155.072h-106.667v102.315l-367.851-251.221h-165.483v-213.803h165.483l367.851-251.221v101.931h106.667v-157.056c0-29.227-16.064-55.68-41.92-69.013-11.157-5.76-23.211-8.597-35.243-8.597-15.659 0-31.232 4.821-44.544 14.336l-385.109 262.72h-239.851v427.605h239.829l386.475 263.616c21.632 15.445 51.691 17.515 77.077 4.416zM868.727 634.679l75.264-75.264-111.403-111.403 111.403-111.403-75.264-75.285-111.403 111.403-111.403-111.403-75.264 75.285 111.403 111.403-111.403 111.403 75.264 75.264 111.403-111.424 111.403 111.424z" />
<glyph unicode="&#xe992;" glyph-name="WhatsApp" d="M746.785 352.020c-12.078 6.563-71.393 38.328-82.524 42.816-11.12 4.482-19.236 6.819-27.908-5.094-8.661-11.88-33.273-38.491-40.728-46.37-7.494-7.884-14.697-8.616-26.785-2.036-12.045 6.541-51.194 20.911-96.594 64.212-35.331 33.703-58.501 74.57-65.219 87.040-6.729 12.486-0.050 18.847 6.339 24.689 5.733 5.274 12.837 13.813 19.258 20.698 6.399 6.89 8.661 11.897 13.063 19.89s2.63 15.195-0.226 21.413c-2.85 6.197-25.173 67.172-34.494 91.975-9.326 24.804-19.715 21.118-26.895 21.397-7.17 0.246-15.33 1.583-23.534 1.884-8.199 0.311-21.646-2.255-33.366-14.037-11.731-11.788-44.613-40.124-46.88-100.181-2.267-60.019 39.6-119.684 45.438-128.037 5.843-8.375 79.949-138.52 203.103-192.042 123.181-53.506 123.825-37.192 146.423-35.991 22.615 1.179 73.869 26.829 85.204 54.92 11.324 28.101 12.232 52.528 9.354 57.732-2.889 5.198-10.955 8.577-23.027 15.124zM520.897 62.696c-81.44 0-157.296 24.241-220.633 65.79l-154.115-48.952 50.093 147.774c-48.014 65.621-76.373 146.224-76.373 233.323 0 219.444 179.91 397.968 401.028 397.968 221.162 0 401.061-178.524 401.061-397.968 0-219.423-179.899-397.935-401.061-397.935zM520.897 938.667c-266.050 0-481.736-214.012-481.736-478.035 0-90.31 25.261-174.778 69.126-246.836l-86.954-256.462 266.721 84.725c69.027-37.858 148.393-59.457 232.843-59.457 266.094 0 481.769 214.039 481.769 478.030 0 264.023-215.676 478.035-481.769 478.035v0z" />
<glyph unicode="&#xe993;" glyph-name="Windows" d="M42.667 784.435l383.607 52.078 0.165-368.878-383.423-2.175-0.348 318.971v0.004zM426.090 425.137l0.293-369.2-383.42 52.553-0.022 319.121 383.148-2.475zM472.591 843.33l508.625 74.003v-445.005l-508.625-4.021v375.023zM981.333 421.665l-0.121-442.998-508.625 71.565-0.711 372.263 509.458-0.83z" />
<glyph unicode="&#xe994;" glyph-name="Zoom_in" d="M394.667 938.667c205.845 0 373.333-167.488 373.333-373.333 0-83.712-28.032-160.832-74.752-223.168v0l309.419-309.419-75.413-75.413-309.419 309.419c-62.336-46.72-139.456-74.752-223.168-74.752-205.845 0-373.333 167.488-373.333 373.333s167.488 373.333 373.333 373.333zM394.667 832c-147.051 0-266.667-119.616-266.667-266.667s119.616-266.667 266.667-266.667c147.051 0 266.667 119.616 266.667 266.667s-119.616 266.667-266.667 266.667zM448 725.333v-106.667h106.667v-106.667h-106.667v-106.667h-106.667v106.667h-106.667v106.667h106.667v106.667h106.667z" />
<glyph unicode="&#xe995;" glyph-name="Zoom_out" d="M394.667 938.667c205.845 0 373.333-167.488 373.333-373.333 0-83.712-28.032-160.832-74.752-223.168v0l309.419-309.419-75.413-75.413-309.419 309.419c-62.336-46.72-139.456-74.752-223.168-74.752-205.845 0-373.333 167.488-373.333 373.333s167.488 373.333 373.333 373.333zM394.667 832c-147.051 0-266.667-119.616-266.667-266.667s119.616-266.667 266.667-266.667c147.051 0 266.667 119.616 266.667 266.667s-119.616 266.667-266.667 266.667zM554.667 618.667v-106.667h-320v106.667h320z" />
<glyph unicode="&#xe996;" glyph-name="Zurueck-Vor" d="M512 938.667c-165.888 0-286.485-77.781-362.603-159.979l-0.085 159.979-106.645-0.064 0.149-287.979c0.021-29.44 23.893-53.291 53.333-53.291h287.787v106.645h-158.101c53.803 59.627 145.877 128.021 286.165 128.021 211.733 0 384-172.267 384-384s-172.267-384-384-384c-202.773 0-327.296 150.656-361.493 251.904l-101.077-34.133c44.075-130.411 203.627-324.437 462.571-324.437 270.571 0 490.667 220.096 490.667 490.667 0 270.549-220.096 490.667-490.667 490.667z" />
</font>
</defs>
</svg>
